Loading...
Error

Скачать Маленький город / Любовники / Little City (Роберто Бенабиб / Roberto Benabib) [1997, мелодрама, комедия, DVDRip] торрент без регистрации

 
Статистика раздачи
Размер:  745 MB   |    Скачан:  172 раза
Сидов:  1  [  0 KB/s  ]  
 
Автор Сообщение

МихаНЕзатор

[] 

Маленький город / Любовники / Little City


Страна: Страна: США
Жанр: Мелодрама, Комедия
Год выпуска: 1997
Продолжительность: 01:26:01

Перевод: Профессиональный (многоголосый закадровый)

Cубтитры: Нет

Режиссер: Роберто Бенабиб / Roberto Benabib

В ролях: Джон Бон Джови, Пенелопа Энн Миллер
, Джош Чарльз, Аннабелла Шиорра, ДжоБет Уильямс, Джоэнна Гоуинг, Джо Беллан, Питер Гардинер, Роберт Элросс, Анна Гетти и др.

Описание: Действие происходит в современном Сан-Франциско, где герои пытаются разобраться в своих любовных отношениях, пересекающихся друг с другом. Бармен Стивен спит с подругой своего лучшего друга, художника, который об этом узнает к великому своему огорчению.

Знакомая Стивена, работающая с ним вместе за стойкой бара, переспала с преподавательницей живописи Энн, только что порвавшей с молодой любовницей, так как отношения их стали слишком «домашними». Лесбийский опыт ей не понравился. Все персонажи постоянно разговаривают друг с другом и даже с самими собой...

Качество видео: DVDRip - Rip by AngelOfTrue
Формат видео: AVI

Видео: Xvid, 624x480, 25.00fps, 1073Kbps
Аудио: MPEG Audio Layer 3, 48000Hz, stereo, 128kbps

Дополнительная информация:

Релиз групп RG Torrents.ru и All Films

Format : AVI
Format/Info : Audio Video Interleave
File size : 745 MiB
Duration : 1h 26mn
Overall bit rate : 1 211 Kbps
Writing application : VirtualDubMod 1.5.10.3 | www.virtualdub-fr.org || (build 2550/release)
Writing library : VirtualDubMod build 2550/release

Video
ID : 0
Format : MPEG-4 Visual
Format profile : Advanced Simple@L5
Format settings, BVOP : 1
Format settings, QPel : No
Format settings, GMC : No warppoints
Format settings, Matrix : Custom
Codec ID : XVID
Codec ID/Hint : XviD
Duration : 1h 26mn
Bit rate : 1 073 Kbps
Width : 624 pixels
Height : 480 pixels
Display aspect ratio : 1.300
Frame rate : 25.000 fps
Color space : YUV
Chroma subsampling : 4:2:0
Bit depth : 8 bits
Scan type : Progressive
Compression mode : Lossy
Bits/(Pixel*Frame) : 0.143
Stream size : 660 MiB (89%)
Writing library : XviD 1.2.1 (UTC 2008-12-04)

Audio
ID : 1
Format : MPEG Audio
Format version : Version 1
Format profile : Layer 3
Codec ID : 55
Codec ID/Hint : MP3
Duration : 1h 26mn
Bit rate mode : Constant
Bit rate : 128 Kbps
Channel(s) : 2 channels
Sampling rate : 48.0 KHz
Compression mode : Lossy
Stream size : 78.7 MiB (11%)
Alignment : Aligned on interleaves
Interleave, duration : 40 ms (1.00 video frame)
Interleave, preload duration : 504 ms
Writing library : LAME3.98r
Encoding settings : -m s -V 4 -q 2 -lowpass 17 -b 128



Скачать Маленький.город.Любовники.Little.City.(Роберто.Бенабиб.Roberto.Benabib).[1997.мелодрама.комедия.DVDRip].torrent без регистрации
Золото ЗОЛОТАЯ РАЗДАЧА! СКАЧАННОЕ НЕ ЗАСЧИТЫВАЕТСЯ! Золото
Дата: Зарегистрирован   [ Тип: внутренний ] Как тут cкачать?
MAGNET ссылка
MAGNET ссылка


Скачать .torrent

15 KB

Статус: проверено DHT
Скачан: торрент - 172 раз, раздача полностью - 1 раз
Размер: 745 MB
Оценка:  - (Голосов: 0)
Поблагодарили: 0
Поделиться ссылкой на эту раздачу с друзьями:
В контактеFacebookОдноклассникиTwitterLivejournalМой МирLiveinternet
 

 
Показать сообщения:    


Вы не можете начинать темы
Вы не можете отвечать на сообщения
Вы не можете редактировать свои сообщения
Вы не можете удалять свои сообщения
Вы не можете голосовать в опросах
Вы не можете прикреплять файлы к сообщениям
Вы можете скачивать файлы