Loading...
Error

Скачать Дневник полярной экспедиции / Antarctic Journal / Namgeuk-ilgi (Им Пиль Сун /Pil-Sung Yim) [2005, приключения, мистика, драма, HDRip-AVC] [AVO @PD] торрент без регистрации

 
Статистика раздачи
Размер:  2,92 GB   |    Скачан:  132 раза
Сидов:  1  [  0 KB/s  ]  
 
Автор Сообщение

МихаНЕзатор

[] 

Страна: Южная Корея
Жанр: приключения, мистика, драма
Год выпуска: 2005
Продолжительность: 01:55:13
Перевод: Авторский (одноголосый закадровый) @PD
Cубтитры: нет
Режиссер: Им Пиль Сун /Pil-Sung Yim
В ролях: Кан Го Сон /Kang-ho Song/, Ю Чжи-Таэ /Ji-tae Yu/, Дук-мун Чоу /Duek-mun Choi/, Кйонг Ик Ким /Kyeong-ik Kim

Описание: Цой До Хён - руководитель корейской экспедиции, бросившей вызов антарктической стихии. Впервые в мире, без помощи со стороны и поддержки, экспедиция должна достичь полюса недоступности Антарктики. На 21-ый день похода группа находит путевой дневник британской экспедиции, проходившей здесь 80 лет назад. Мин Чжэ, самому молодому участнику похода становится не по себе, когда он замечает, что рисунки в дневнике странным образом напоминают членов их собственной экспедиции. После этого с экспедицией начинают происходить странные вещи.

Сэмпл для оценки качества видео и звука

Качество видео: HDRip (WEB DL)
Формат видео: MKV
Видео: AVC, High@L4.1, 1280х544 pixels (2.35:1), 3 110 Kbps, 23.976 fps
Аудио: AC-3, DD 5.1 448 Kbps, 48.0 KHz

Релиз: от


Complete name : Дневник полярной экспедиции - Antarctic Journal (2005).mkv
Format : Matroska
File size : 2.92 GiB
Duration : 1h 55mn
Overall bit rate : 3 630 Kbps
Encoded date : UTC 2011-04-17 20:33:31
Writing application : mkvmerge v3.0.0 ('Hang up your Hang-Ups') built on Dec 12 2009 15:20:35
Writing library : libebml v0.7.9 + libmatroska v0.8.1

Video
ID : 1
Format : AVC
Format/Info : Advanced Video Codec
Format profile : High@L4.1
Format settings, CABAC : Yes
Format settings, ReFrames : 9 frames
Codec ID : V_MPEG4/ISO/AVC
Duration : 1h 55mn
Bit rate : 3 110 Kbps
Width : 1 280 pixels
Height : 544 pixels
Display aspect ratio : 2.35:1
Frame rate : 23.976 fps
Color space : YUV
Chroma subsampling : 4:2:0
Bit depth : 8 bits
Scan type : Progressive
Bits/(Pixel*Frame) : 0.186
Stream size : 2.50 GiB (86%)
Writing library : x264 core 92 r1510 33d382a
Encoding settings : cabac=1 / ref=9 / deblock=1:-2:-2 / analyse=0x3:0x111 / me=umh / subme=9 / psy=1 / psy_rd=1.00:0.10 / mixed_ref=1 / me_range=32 / chroma_me=1 / trellis=2 / 8x8dct=1 / cqm=0 / deadzone=21,11 / fast_pskip=1 / chroma_qp_offset=-3 / threads=3 / sliced_threads=0 / nr=0 / decimate=1 / interlaced=0 / constrained_intra=0 / bframes=3 / b_pyramid=2 / b_adapt=2 / b_bias=0 / direct=1 / wpredb=1 / wpredp=2 / keyint=250 / keyint_min=25 / scenecut=40 / intra_refresh=0 / rc_lookahead=60 / rc=crf / mbtree=1 / crf=17.0 / qcomp=0.60 / qpmin=10 / qpmax=51 / qpstep=4 / ip_ratio=1.40 / aq=1:1.00

Audio
ID : 2
Format : AC-3
Format/Info : Audio Coding 3
Mode extension : CM (complete main)
Codec ID : A_AC3
Duration : 1h 55mn
Bit rate mode : Constant
Bit rate : 448 Kbps
Channel(s) : 6 channels
Channel positions : Front: L C R, Side: L R, LFE
Sampling rate : 48.0 KHz
Bit depth : 16 bits
Stream size : 369 MiB (12%)
Title : Авторский перевод @PD
Language : Russian



Скачать Дневник.полярной.экспедиции.Antarctic.Journal.Namgeuk-ilgi.(Им.Пиль.Сун.Pil-Sung.Yim).[2005.приключения.мистика.драма.HDRip-AVC].[AVO.@PD].torrent без регистрации
Золото ЗОЛОТАЯ РАЗДАЧА! СКАЧАННОЕ НЕ ЗАСЧИТЫВАЕТСЯ! Золото
Дата: Зарегистрирован   [ Тип: внутренний ] Как тут cкачать?
MAGNET ссылка
MAGNET ссылка


Скачать .torrent

15 KB

Статус: проверено DHT
Скачан: торрент - 132 раз, раздача полностью - 13 раз
Размер: 2,92 GB
Оценка:  5 (Голосов: 1)
Поблагодарили: 2
Поделиться ссылкой на эту раздачу с друзьями:
В контактеFacebookОдноклассникиTwitterLivejournalМой МирLiveinternet
 

 
Показать сообщения:    


Вы не можете начинать темы
Вы не можете отвечать на сообщения
Вы не можете редактировать свои сообщения
Вы не можете удалять свои сообщения
Вы не можете голосовать в опросах
Вы не можете прикреплять файлы к сообщениям
Вы можете скачивать файлы