Loading...
Error

Скачать Зачарованная / Enchanted (Кевин Лима / Kevin Lima) [2007 г., фэнтези, мюзикл, приключения, семейный, BDRip-AVC] торрент без регистрации

 
Статистика раздачи
Размер:  2,91 GB   |    Скачан:  145 раз
Сидов:  1  [  0 KB/s  ]  
 
Автор Сообщение

МихаНЕзатор

[] 

Зачарованная / Enchanted

«Все еще ждешь принца?.. Добро пожаловать в реальный мир.»

Год выпуска: 2007
Страна: США
Жанр: мюзикл, фэнтези, мелодрама, комедия, семейный
Продолжительность: 01:47:28
Перевод: профессиональный (полное дублирование)
Оригинальная аудиодорожка: английский
Русские субтитры: есть
Навигация по главам: есть
Режиссер: Кевин Лима / Kevin Lima

В ролях: Эми Адамс, Патрик Демпси, Джеймс Марсден, Тимоти Сполл, Идина Мензел, Рэйчел Кови, Сьюзен Сарандон, Джули Эндрюс, Джефф Беннетт, Кевин Лима

Описание:
Юная девушка из мультипликационного мира влюбилась в прекрасного принца, чем немало разозлила его мачеху.
С помощью черной магии королева отправляет несчастную в единственное место во Вселенной, где нет любви — современный Манхэттен.

Вчерашней мультяшке придется как-то выживать в реальности.
Доп. информация: Kinopoisk.ru | IMDB | Sample |
Качество: BDRip-AVC |

Формат: MKV
Видео кодек: H.264
Аудио кодек: AС3

Видео: H.264, 1068x454, 23.976 fps, ~2982 kbps

Аудио 1: Русский: 48 kHz, AC3, 3/2 (L,C,R,l,r) + LFE ch, ~ 448.00 kbps
Аудио 2: Английский: 48 kHz, AC3, 3/2 (L,C,R,l,r) + LFE ch, ~ 448.00 kbps

Формат субтитров: softsub (SRT) | русские (надписи и пр.), русские (полные с BD), русские (Voronine), английские (SDH), английские


x264 [info]: frame I:1420 Avg QP:17.80 size: 86411 PSNR Mean Y:45.72 U:47.87 V:48.63 Avg:46.37 Global:43.29
x264 [info]: frame P:34309 Avg QP:20.31 size: 34027 PSNR Mean Y:44.02 U:47.00 V:47.74 Avg:44.83 Global:44.13
x264 [info]: frame B:118879 Avg QP:23.37 size: 9366 PSNR Mean Y:42.65 U:46.20 V:47.28 Avg:43.59 Global:43.00
x264 [info]: consecutive B-frames: 2.0% 2.4% 5.4% 36.8% 14.8% 27.9% 3.6% 2.2% 4.8%
x264 [info]: mb I I16..4: 7.4% 68.3% 24.3%
x264 [info]: mb P I16..4: 1.0% 9.9% 2.5% P16..4: 33.3% 27.2% 18.1% 0.0% 0.0% skip: 7.9%
x264 [info]: mb B I16..4: 0.1% 1.1% 0.4% B16..8: 38.8% 11.7% 4.5% direct: 5.2% skip:38.3% L0:40.8% L1:43.9% BI:15.3%
x264 [info]: 8x8 transform intra:72.7% inter:60.2%
x264 [info]: direct mvs spatial:98.1% temporal:1.9%
x264 [info]: coded y,uvDC,uvAC intra: 89.2% 87.0% 67.5% inter: 28.1% 23.3% 11.4%
x264 [info]: i16 v,h,dc,p: 39% 20% 7% 34%
x264 [info]: i8 v,h,dc,ddl,ddr,vr,hd,vl,hu: 15% 7% 5% 9% 14% 14% 13% 11% 11%
x264 [info]: i4 v,h,dc,ddl,ddr,vr,hd,vl,hu: 15% 7% 4% 9% 15% 14% 13% 11% 12%
x264 [info]: i8c dc,h,v,p: 41% 20% 21% 18%
x264 [info]: Weighted P-Frames: Y:3.1% UV:2.0%
x264 [info]: ref P L0: 51.4% 10.8% 14.5% 6.7% 4.8% 3.6% 2.8% 1.8% 1.4% 1.2% 0.9% 0.1% 0.0%
x264 [info]: ref B L0: 77.5% 10.9% 4.6% 2.3% 1.6% 1.2% 0.9% 0.6% 0.3% 0.2%
x264 [info]: ref B L1: 94.0% 6.0%
x264 [info]: SSIM Mean Y:0.9725575 (15.616db)
x264 [info]: PSNR Mean Y:42.983 U:46.391 V:47.394 Avg:43.890 Global:43.228 kb/s:2981.93
General
Unique ID : 206689740351206492239930322353119214257 (0x9B7EFEFAC6093A4B91D62DE61022BAB1)
Complete name : I:\Enchanted.SD.barm.mkv
Format : Matroska
File size : 2.91 GiB
Duration : 1h 47mn
Overall bit rate : 3 881 Kbps
Movie name : Enchanted 2007
Encoded date : UTC 2011-04-17 18:18:25
Writing application : mkvmerge v4.6.0 ('Still Crazy After All These Years') built on Mar 10 2011 02:50:32
Writing library : libebml v1.2.0 + libmatroska v1.1.0
Cover : Yes / Yes

Video
ID : 1
Format : AVC
Format/Info : Advanced Video Codec
Format profile : High@L4.0
Format settings, CABAC : Yes
Format settings, ReFrames : 11 frames
Codec ID : V_MPEG4/ISO/AVC
Duration : 1h 47mn
Bit rate : 2 982 Kbps
Width : 1 068 pixels
Height : 454 pixels
Display aspect ratio : 2.35:1
Frame rate : 23.976 fps
Color space : YUV
Chroma subsampling : 4:2:0
Bit depth : 8 bits
Scan type : Progressive
Bits/(Pixel*Frame) : 0.257
Stream size : 2.18 GiB (75%)
Title : Enchanted 2007
Writing library : x264 core 115 r1936 7a9e08d
Encoding settings : cabac=1 / ref=11 / deblock=1:-2:-1 / analyse=0x3:0x113 / me=umh / subme=10 / psy=1 / psy_rd=1.03:0.00 / mixed_ref=1 / me_range=32 /
chroma_me=1 / trellis=2 / 8x8dct=1 / cqm=0 / deadzone=21,11 / fast_pskip=0 / chroma_qp_offset=-2 / threads=6 / sliced_threads=0 / nr=0 / decimate=0 / interlaced=0 /
bluray_compat=0 / constrained_intra=0 / bframes=8 / b_pyramid=2 / b_adapt=2 / b_bias=0 / direct=3 / weightb=1 / open_gop=0 / weightp=2 / keyint=250 / keyint_min=23 /
scenecut=40 / intra_refresh=0 / rc_lookahead=60 / rc=2pass / mbtree=1 / bitrate=2982 / ratetol=1.0 / qcomp=0.65 / qpmin=0 / qpmax=69 / qpstep=4 / cplxblur=20.0 /
qblur=0.5 / vbv_maxrate=25000 / vbv_bufsize=31250 / nal_hrd=none / ip_ratio=1.30 / aq=2:0.80 / zones=145145,154607,b=0.5
Language : English
Matrix coefficients : BT.709-5, BT.1361, IEC 61966-2-4 709, SMPTE RP177

Audio #1
ID : 2
Format : AC-3
Format/Info : Audio Coding 3
Mode extension : CM (complete main)
Codec ID : A_AC3
Duration : 1h 47mn
Bit rate mode : Constant
Bit rate : 448 Kbps
Channel(s) : 6 channels
Channel positions : Front: L C R, Side: L R, LFE
Sampling rate : 48.0 KHz
Bit depth : 16 bits
Compression mode : Lossy
Stream size : 344 MiB (12%)
Title : Dubljaz, 48 kHz, AC3, 3/2 (L,C,R,l,r) + LFE ch, ~ 448.00 kbps
Language : Russian

Audio #2
ID : 3
Format : AC-3
Format/Info : Audio Coding 3
Mode extension : CM (complete main)
Codec ID : A_AC3
Duration : 1h 47mn
Bit rate mode : Constant
Bit rate : 448 Kbps
Channel(s) : 6 channels
Channel positions : Front: L C R, Side: L R, LFE
Sampling rate : 48.0 KHz
Bit depth : 16 bits
Compression mode : Lossy
Stream size : 344 MiB (12%)
Title : Original, 48 kHz, AC3, 3/2 (L,C,R,l,r) + LFE ch, ~ 448.00 kbps
Language : English

Text #1
ID : 4
Format : UTF-8
Codec ID : S_TEXT/UTF8
Codec ID/Info : UTF-8 Plain Text
Title : Forced BD CEE
Language : Russian

Text #2
ID : 5
Format : UTF-8
Codec ID : S_TEXT/UTF8
Codec ID/Info : UTF-8 Plain Text
Title : BD CEE
Language : Russian

Text #3
ID : 6
Format : UTF-8
Codec ID : S_TEXT/UTF8
Codec ID/Info : UTF-8 Plain Text
Title : Voronine
Language : Russian

Text #4
ID : 7
Format : UTF-8
Codec ID : S_TEXT/UTF8
Codec ID/Info : UTF-8 Plain Text
Title : SDH
Language : English

Text #5
ID : 8
Format : UTF-8
Codec ID : S_TEXT/UTF8
Codec ID/Info : UTF-8 Plain Text
Language : English

Menu
00:00:00.000 : en:1. Once Upon a Time
00:04:16.298 : en:2. He's Out There Somewhere
00:08:01.815 : en:3. A Wishing Well
00:13:04.867 : en:4. A Bit of Kindness
00:17:36.430 : en:5. Welcome to New York
00:23:25.404 : en:6. "Happy Working Song"
00:28:21.700 : en:7. Grown-up Girl Bonding Time
00:34:03.291 : en:8. Have You Found Her Yet?
00:40:17.707 : en:9. A Divorce for Ever and Ever
00:45:24.096 : en:10. "That's How You Know"
00:52:36.028 : en:11. The Magic Mirror
00:57:06.381 : en:12. Not a Date
01:07:40.056 : en:13. Edward Arrives
01:12:46.112 : en:14. A Splendid Date
01:16:53.817 : en:15. The Queen Arrives
01:20:23.402 : en:16. A Dance
01:24:06.166 : en:17. Just One Bite
01:26:43.365 : en:18. True Love's Kiss
01:32:31.212 : en:19. A Tale of New Heights
01:39:05.898 : en:20. The End






Скачать Зачарованная.Enchanted.(Кевин.Лима.Kevin.Lima).[2007.г.фэнтези.мюзикл.приключения.семейный.BDRip-AVC].torrent без регистрации
Золото ЗОЛОТАЯ РАЗДАЧА! СКАЧАННОЕ НЕ ЗАСЧИТЫВАЕТСЯ! Золото
Дата: Зарегистрирован   [ Тип: внутренний ] Как тут cкачать?
MAGNET ссылка
MAGNET ссылка


Скачать .torrent

15 KB

Статус: проверено DHT
Скачан: торрент - 145 раз, раздача полностью - 25 раз
Размер: 2,91 GB
Оценка:  5 (Голосов: 2)
Поблагодарили: 2
Поделиться ссылкой на эту раздачу с друзьями:
В контактеFacebookОдноклассникиTwitterLivejournalМой МирLiveinternet
 

 
Показать сообщения:    


Вы не можете начинать темы
Вы не можете отвечать на сообщения
Вы не можете редактировать свои сообщения
Вы не можете удалять свои сообщения
Вы не можете голосовать в опросах
Вы не можете прикреплять файлы к сообщениям
Вы можете скачивать файлы