Loading...
Error

Скачать Где ты? / Where Are You? / Wakaranai (Масахиро Кобаяси / Masahiro Kobayashi) [2009, драма, DVDRip] торрент без регистрации

 
Статистика раздачи
Размер:  1,37 GB   |    Скачан:  108 раз
Сидов:  1  [  0 KB/s  ]  
 
Автор Сообщение

МихаНЕзатор

[] 

Где ты? / Where Are You? / Wakaranai / ワカラナイ

Страна: Япония
Жанр: Драма
Год выпуска: 2009
Продолжительность: 01:44:01

Перевод: cубтитры
Cубтитры: русские от
Оригинальная аудиодорожка: японский

Режиссер: Масахиро Кобаяси / Masahiro Kobayashi

В ролях:
Юто Кобаяси / Yuto Kobayashi - Рё Каваи
Макико Ватанабэ / Makiko Watanabe
Масахиро Кобаяси / Masahiro Kobayashi

Описание: "Где ты?" - необычная драма, снятая в цвете, она, однако, кажется чёрно-белой. Неспешное повествование, малое количество диалогов. История держит в центре своего повествования жизнь 16-летнего подростка Рё Каваи. Эта жизнь - каждодневное выживание: его мать медленно умирает в больнице, своего отца он не знает и никогда не знал, у него нет денег на еду, на жильё, на школьное обучение, на похороны матери. Однако же это не становится историей, выжимающей из зрителя слезу, или моралистской притчей. История о мальчике, который родился взрослым. И напоминание взрослому, что внутри него всегда можно обнаружить того самого мальчика. И кто здесь мальчик? И кто здесь взрослый? Масахиро Кобаяси посвятил фильм своему отцу и Антуану Дуанелю.

Качество видео: DVDRip
Формат видео: AVI

Видео: XviD, 704*400, 1.76, 23.976 fps, ~1 879 Kbps, 0.249 bit/pixel
Аудио: MP3, 48.0 KHz, 192 Kbps VBR, 2 ch
Формат субтитров: softsub, отключаемые, отдельным файлом *.SRT

Код:

General
Complete name                    : ...\Wakaranai.2009.DVDRip.MArt\Wakaranai.2009.DVDRip.MArt.avi
Format                           : AVI
Format/Info                      : Audio Video Interleave
File size                        : 1.37 GiB
Duration                         : 1h 44mn
Overall bit rate                 : 1 879 Kbps
Writing application              : VirtualDubMod 1.5.10.2 (build 2540/release)
Writing library                  : VirtualDubMod build 2540/release

Video
ID                               : 0
Format                           : MPEG-4 Visual
Format profile                   : Advanced Simple@L5
Format settings, BVOP            : 2
Format settings, QPel            : No
Format settings, GMC             : No warppoints
Format settings, Matrix          : Default (H.263)
Codec ID                         : XVID
Codec ID/Hint                    : XviD
Duration                         : 1h 44mn
Bit rate                         : 1 681 Kbps
Width                            : 704 pixels
Height                           : 400 pixels
Display aspect ratio             : 16:9
Frame rate                       : 23.976 fps
Color space                      : YUV
Chroma subsampling               : 4:2:0
Bit depth                        : 8 bits
Scan type                        : Progressive
Compression mode                 : Lossy
Bits/(Pixel*Frame)               : 0.249
Stream size                      : 1.22 GiB (89%)
Writing library                  : XviD 1.2.1 (UTC 2008-12-04)

Audio
ID                               : 1
Format                           : MPEG Audio
Format version                   : Version 1
Format profile                   : Layer 3
Codec ID                         : 55
Codec ID/Hint                    : MP3
Duration                         : 1h 44mn
Bit rate mode                    : Variable
Bit rate                         : 192 Kbps
Channel(s)                       : 2 channels
Sampling rate                    : 48.0 KHz
Compression mode                 : Lossy
Stream size                      : 138 MiB (10%)
Alignment                        : Aligned on interleaves
Interleave, duration             : 24 ms (0.58 video frame)
Interleave, preload duration     : 508 ms
Writing library                  : LAME3.98r
Encoding settings                : -m s -V 4 -q 2 -lowpass 18.6 --abr 192


Раздача начнётся сегодня 18.04.2011 в 22.00 по Москве (UTC+4)





Скачать Где.ты?.Where.Are.You?.Wakaranai.(Масахиро.Кобаяси.Masahiro.Kobayashi).[2009.драма.DVDRip].torrent без регистрации
Золото ЗОЛОТАЯ РАЗДАЧА! СКАЧАННОЕ НЕ ЗАСЧИТЫВАЕТСЯ! Золото
Дата: Зарегистрирован   [ Тип: внутренний ] Как тут cкачать?
MAGNET ссылка
MAGNET ссылка


Скачать .torrent

219 KB

Статус: проверено DHT
Скачан: торрент - 108 раз, раздача полностью - 1 раз
Размер: 1,37 GB
Оценка:  5 (Голосов: 1)
Поблагодарили: 0
Поделиться ссылкой на эту раздачу с друзьями:
В контактеFacebookОдноклассникиTwitterLivejournalМой МирLiveinternet
 

 
Показать сообщения:    


Вы не можете начинать темы
Вы не можете отвечать на сообщения
Вы не можете редактировать свои сообщения
Вы не можете удалять свои сообщения
Вы не можете голосовать в опросах
Вы не можете прикреплять файлы к сообщениям
Вы можете скачивать файлы