Loading...
Error

Скачать Корпоративка / Изоляция / Severance (Кристофер Смит / Christopher Smith) [2006 г., ужасы, триллер, комедия, BDRip-AVC] торрент без регистрации

 
Статистика раздачи
Размер:  2,73 GB   |    Скачан:  119 раз
Сидов:  1  [  0 KB/s  ]  
 
Автор Сообщение

МихаНЕзатор

[] 

Корпоративка / Изоляция / Severance
«The Company Is Making Cutbacks» [font="Georgia"]
Год выпуска: 2006
Выпущено: Германия, Великобритания / HanWay Films
Жанр: ужасы, триллер, комедия
Продолжительность: 01:35:45
Перевод: Профессиональный (многоголосый, R5) + Любительский (двухголосый) + Английский (оригинал)
Режиссер: Кристофер Смит / Christopher Smith
В ролях: Тоби Стивенс, Клоди Блейкли, Энди Найман, Бабу Сизей, Тим МакИннерни, Лора Харрис, Дэнни Дайер, Дэвид Гиллиам, Жюли Драйко, Юдит Виктор
Сюжет: 8 члeнов оружейной компании отправились в Вeнгрию для поддeржания комaнднoгo духa. Никто из них не предполагал, что байки о кровожадных военных преступниках, засевших в лесу, являются правдой.
Сэмпл |
Качество видео: BDRip-AVC =>
Формат: MKV
Видео кодек: H.264
Аудио кодек: AC3
Видео: H.264, 1024 x 576, 23.976 fps, ~2864 Кбит/с
Аудио #1: AC3, 384 Кбит/с, 48 kHz (6 ch) Russian R5
Аудио #2: AC3, 192 Кбит/с, 48 kHz (2 ch) Russian /
Многоголосый
Аудио #3: AC3, 192 Кбит/с, 48 kHz (2 ch) Russian / Двухголосый
Аудио #4: AC3, 448 Кбит/с, 48 kHz (6 ch) English
Cубтитры: Русские, Английские

Код:

avs [info]: 1024x576p 1:1 @ 24000/1001 fps (cfr)
x264 [info]: using SAR=1/1
x264 [info]: using cpu capabilities: MMX2 SSE2Fast SSSE3 FastShuffle SSE4.1 Cache64
x264 [info]: profile High, level 4.0

x264 [info]: frame I:1074  Avg QP:15.39  size: 77718  PSNR Mean Y:47.72 U:51.73 V:50.79 Avg:48.57 Global:47.93
x264 [info]: frame P:29474 Avg QP:16.51  size: 29822  PSNR Mean Y:47.12 U:51.40 V:50.21 Avg:47.96 Global:46.60
x264 [info]: frame B:107203 Avg QP:18.82  size: 10208  PSNR Mean Y:45.46 U:50.62 V:49.17 Avg:46.43 Global:45.73
x264 [info]: consecutive B-frames:  2.1%  2.3%  6.2% 21.0% 18.0% 41.8%  4.0%  1.6%  2.6%  0.4%
x264 [info]: mb I  I16..4:  3.9% 82.6% 13.6%
x264 [info]: mb P  I16..4:  0.7% 11.2%  1.3%  P16..4: 42.5% 31.3%  7.3%  0.4%  0.4%    skip: 4.9%
x264 [info]: mb B  I16..4:  0.0%  0.8%  0.1%  B16..8: 39.3% 14.8%  3.9%  direct: 6.8%  skip:34.2%  L0:42.2% L1:45.0% BI:12.7%
x264 [info]: 8x8 transform intra:84.1% inter:56.6%
x264 [info]: direct mvs  spatial:100.0% temporal:0.0%
x264 [info]: coded y,uvDC,uvAC intra: 94.2% 83.3% 60.7% inter: 30.2% 18.3% 3.2%
x264 [info]: i16 v,h,dc,p: 45% 10%  6% 39%
x264 [info]: i8 v,h,dc,ddl,ddr,vr,hd,vl,hu:  9%  9%  5%  9% 14% 13% 14% 12% 14%
x264 [info]: i4 v,h,dc,ddl,ddr,vr,hd,vl,hu:  9%  7%  2%  9% 16% 15% 15% 11% 14%
x264 [info]: i8c dc,h,v,p: 45% 23% 18% 14%
x264 [info]: Weighted P-Frames: Y:3.6% UV:2.2%
x264 [info]: ref P L0: 46.0%  9.5% 18.3%  6.7%  6.0%  4.2%  4.0%  2.4%  2.5%  0.3%  0.0%
x264 [info]: ref B L0: 75.9% 11.3%  5.0%  2.8%  2.0%  1.6%  1.0%  0.4%
x264 [info]: ref B L1: 93.8%  6.2%
x264 [info]: SSIM Mean Y:0.9829261 (17.677db)
x264 [info]: PSNR Mean Y:45.836 U:50.795 V:49.407 Avg:46.773 Global:45.914 kb/s:2863.85

x264 [total]: encoded 137751 frames, 3.88 fps, 2863.86 kb/s

Код:

General
Unique ID                        : 181073066078197966986036406846336272069 (0x8839676D14DAA6A1A0714868532C06C5)
Complete name                    : D:\VIDEO\Severance.2006.BDRip-AVC.3xRus.Eng.R.G.tRu.mkv
Format                           : Matroska
File size                        : 2.73 GiB
Duration                         : 1h 35mn
Overall bit rate                 : 4 083 Kbps
Movie name                       : Severance 2006
Encoded date                     : UTC 2011-04-19 00:49:14
Writing application              : mkvmerge v4.6.0 ('Still Crazy After All These Years') built on Apr  1 2011 21:01:49
Writing library                  : libebml v1.2.0 + libmatroska v1.1.0
Cover                            : Yes

Video
ID                               : 1
Format                           : AVC
Format/Info                      : Advanced Video Codec
Format profile                   : High@L4.0
Format settings, CABAC           : Yes
Format settings, ReFrames        : 9 frames
Codec ID                         : V_MPEG4/ISO/AVC
Duration                         : 1h 35mn
Bit rate                         : 2 785 Kbps
Width                            : 1 024 pixels
Height                           : 576 pixels
Display aspect ratio             : 16:9
Frame rate                       : 23.976 fps
Color space                      : YUV
Chroma subsampling               : 4:2:0
Bit depth                        : 8 bits
Scan type                        : Progressive
Bits/(Pixel*Frame)               : 0.197
Stream size                      : 1.86 GiB (68%)
Title                            : Severance / Release from R.G.tRu
Writing library                  : x264 core 115 r1937 aa21558
Encoding settings                : cabac=1 / ref=9 / deblock=1:-2:-1 / analyse=0x3:0x133 / me=umh / subme=10 / psy=1 / psy_rd=1.05:0.00 / mixed_ref=1 / me_range=32 / chroma_me=1 / trellis=2 / 8x8dct=1 / cqm=0 / deadzone=21,11 / fast_pskip=0 / chroma_qp_offset=-2 / threads=6 / sliced_threads=0 / nr=0 / decimate=1 / interlaced=0 / bluray_compat=0 / constrained_intra=0 / bframes=9 / b_pyramid=2 / b_adapt=2 / b_bias=0 / direct=3 / weightb=1 / open_gop=0 / weightp=2 / keyint=250 / keyint_min=23 / scenecut=40 / intra_refresh=0 / rc_lookahead=60 / rc=crf / mbtree=0 / crf=17.9 / qcomp=0.70 / qpmin=0 / qpmax=69 / qpstep=4 / vbv_maxrate=25000 / vbv_bufsize=31250 / crf_max=0.0 / nal_hrd=none / ip_ratio=1.35 / pb_ratio=1.25 / aq=1:0.95
Language                         : English

Audio #1
ID                               : 2
Format                           : AC-3
Format/Info                      : Audio Coding 3
Mode extension                   : CM (complete main)
Codec ID                         : A_AC3
Duration                         : 1h 35mn
Bit rate mode                    : Constant
Bit rate                         : 384 Kbps
Channel(s)                       : 6 channels
Channel positions                : Front: L C R, Side: L R, LFE
Sampling rate                    : 48.0 KHz
Bit depth                        : 16 bits
Compression mode                 : Lossy
Stream size                      : 263 MiB (9%)
Title                            : Многоголосый (R5)
Language                         : Russian

Audio #2
ID                               : 3
Format                           : AC-3
Format/Info                      : Audio Coding 3
Mode extension                   : CM (complete main)
Codec ID                         : A_AC3
Duration                         : 1h 35mn
Bit rate mode                    : Constant
Bit rate                         : 192 Kbps
Channel(s)                       : 2 channels
Channel positions                : Front: L R
Sampling rate                    : 48.0 KHz
Bit depth                        : 16 bits
Compression mode                 : Lossy
Stream size                      : 132 MiB (5%)
Title                            : Многоголосый
Language                         : Russian

Audio #3
ID                               : 4
Format                           : AC-3
Format/Info                      : Audio Coding 3
Mode extension                   : CM (complete main)
Codec ID                         : A_AC3
Duration                         : 1h 35mn
Bit rate mode                    : Constant
Bit rate                         : 192 Kbps
Channel(s)                       : 2 channels
Channel positions                : Front: L R
Sampling rate                    : 48.0 KHz
Bit depth                        : 16 bits
Compression mode                 : Lossy
Stream size                      : 132 MiB (5%)
Title                            : Двухголосый
Language                         : Russian

Audio #4
ID                               : 5
Format                           : AC-3
Format/Info                      : Audio Coding 3
Mode extension                   : CM (complete main)
Codec ID                         : A_AC3
Duration                         : 1h 35mn
Bit rate mode                    : Constant
Bit rate                         : 448 Kbps
Channel(s)                       : 6 channels
Channel positions                : Front: L C R, Side: L R, LFE
Sampling rate                    : 48.0 KHz
Bit depth                        : 16 bits
Compression mode                 : Lossy
Stream size                      : 307 MiB (11%)
Title                            : Английский
Language                         : English

Text #1
ID                               : 6
Format                           : UTF-8
Codec ID                         : S_TEXT/UTF8
Codec ID/Info                    : UTF-8 Plain Text
Title                            : Русские (R5)
Language                         : Russian

Text #2
ID                               : 7
Format                           : UTF-8
Codec ID                         : S_TEXT/UTF8
Codec ID/Info                    : UTF-8 Plain Text
Title                            : Русские
Language                         : Russian

Text #3
ID                               : 8
Format                           : UTF-8
Codec ID                         : S_TEXT/UTF8
Codec ID/Info                    : UTF-8 Plain Text
Title                            : Английские
Language                         : English






Скачать Корпоративка.Изоляция.Severance.(Кристофер.Смит.Christopher.Smith).[2006.г.ужасы.триллер.комедия.BDRip-AVC].torrent без регистрации
Золото ЗОЛОТАЯ РАЗДАЧА! СКАЧАННОЕ НЕ ЗАСЧИТЫВАЕТСЯ! Золото
Дата: Зарегистрирован   [ Тип: внутренний ] Как тут cкачать?
MAGNET ссылка
MAGNET ссылка


Скачать .torrent

14 KB

Статус: проверено DHT
Скачан: торрент - 119 раз, раздача полностью - 24 раз
Размер: 2,73 GB
Оценка:  - (Голосов: 0)
Поблагодарили: 0
Поделиться ссылкой на эту раздачу с друзьями:
В контактеFacebookОдноклассникиTwitterLivejournalМой МирLiveinternet
 

 
Показать сообщения:    


Вы не можете начинать темы
Вы не можете отвечать на сообщения
Вы не можете редактировать свои сообщения
Вы не можете удалять свои сообщения
Вы не можете голосовать в опросах
Вы не можете прикреплять файлы к сообщениям
Вы можете скачивать файлы