Loading...
Error

Скачать Мгла / The Mist (Фрэнк Дарабонт / Frank Darabont) [2007, ужасы, фантастика, триллер, BDRip-AVC] торрент без регистрации

 
Статистика раздачи
Размер:  4,71 GB   |    Скачан:  154 раза
Сидов:  1  [  0 KB/s  ]  
 
Автор Сообщение

МихаНЕзатор

[] 

Мгла / The Mist
Год выпуска: 2007
Страна: США
Жанр: ужасы, фантастика, триллер
Продолжительность: 02:05:59
Перевод:
- профессиональный (полное дублирование)
- профессиональный (многоголосый закадровый, Киномания)
- профессиональный (многоголосый закадровый, Кравец)
- авторский (одноголосый закадровый, Немахов)
Русские субтитры: есть

Режиссер: Фрэнк Дарабонт / Frank Darabont

В ролях: Томас Джейн, Марша Гэй Харден, Лори Холден, Андре Брогер, Тоби Джонс, Уильям Сэдлер, Джеффри ДеМун, Фрэнсис Стернхаген, Натан Гэмбл, Алекса Давалос

Описание: Маленький городок накрывает сверхъестественный туман, отрезая людей от внешнего мира. Группе героев, оказавшихся в этот момент в супермаркете, приходится вступить в неравный бой с обитающими в тумане монстрами.
Рейтинг MPAA:
Доп. информация:
IMDb: 7.4/10
Kinopoisk: 7.614/10
Sample

Качество: BDRip-AVC ()
Формат: MKV
Видео кодек: H.264
Аудио кодек: AC3
Видео: 1184x640 (1.85:1), 3380 kbps, 23.976 fps
Аудио №1: Russian, AC3, 6ch, 48 kHz, 384 kbps (Дубляж) исправленный
Аудио №2: Russian, AC3, 6ch, 48 kHz, 384 kbps (Многоголосый, Киномания)
Аудио №3: Russian, AC3, 6ch, 48 kHz, 384 kbps (Многоголосый, Кравец)
Аудио №4: Russian, AC3, 6ch, 48 kHz, 384 kbps (Одноголосый, Немахов)
Аудио №5: English, AC3, 6ch, 48 kHz, 448 kbps (Оригинал)
Субтитры №1: Russian, SRT
Субтитры №2: English, SRT

Размер файла без любой одной русской дорожки 4,37 ГБ ≈ DVD5

В фильме присутствует географическая ошибка. На пожарной машине, которая проезжает мимо супермаркета написано «Каддо Пэриш». Но Каддо Пэриш находится не в штате Мэн (где происходит действие фильма), а в Шривпорте штата Луизиана (где проводились съёмки).
Уильям Сэдлер, Джеффри ДеМун и Брайан Либби снялись во всех трех фильмах Фрэнка Дарабонта, снятых по произведениям Стивена Кинга («Побег из Шоушенка», «Зеленая миля», «Мгла»).
В начале фильма у героя Томаса Джейна можно увидеть постер фильма «Нечто» и как он сам рисует плакат - иллюстрацию к известному циклу С. Кинга «Темная башня». В частности, там можно увидеть Стрелка и Розу. Это отсылка к Дрю Струзену, художнику, который нарисовал множество плакатов и афиши ко всем фильмам Дарабонта, а так же тот самый постер к фильму «Нечто».
В фильме звучит песня «Host Of The Seraphim» в исполнении Dead Can Dance.
Уильям Сэдлер озвучил Дэвида Дрейтона в аудиоверсии романа.
Первоначально Фрэнк Дарабонт хотел сделать фильм черно-белым. Второй диск американского двухдискового подарочного издания содержит черно-белую авторскую версию картины.
Фрэнк Дарабонт хотел, чтобы Стивен Кинг сыграл в фильме камео - для него была предназначена роль байкера. Однако Король хоррора отказался от предложения, и роль в результате исполнил Брайан Либби.
В оригинальном сценарии Фрэнка Дарабонта имелся вводный эпизод, в котором было показано, как военный ученый, которого упоминает рядовой Джессап, случайно открывает портал в другое измерение, что и позволяет туману и монстрам проникнуть в наш мир. Однажды во время обеда актер Андре Брауэр спросил режиссера, так ли необходим этот эпизод. Фрэнк Дарабонт всерьез задумался об этом и через неделю решил удалить этот эпизод, оставив природу тумана и монстров менее ясной.
Первоначально Фрэнк Дарабонт решил не экранизировать эпизод оригинальной повести, в котором Дэвид Дрэйтон и те, кто едет вместе с ним в машине, видят как над ними проходит исполинское шестилапое чудовище, опасаясь, что не получится сделать это сцену убедительной; этого эпизода не было в оригинальном сценарии. Однако уже в процессе съемок фильма несколько мастеров спецэффектов со студии «Кафе-Эффектс» уговорили режиссера все-таки вставить этот эпизод в фильм, сумев убедить его в том, что они справятся с этой непростой задачей.
Действие фильма, как и большей части произведений Стивена Кинга, происходит в штате Мэн. Однако вся натура была отснята не в Мэне, а в Миндене, штат Луизиана. К огромному восторгу Фрэнка Дарабонта, когда Стивен Кинг смотрел фильм, он не заметил, что фильм снят не в Мэне.
Финал фильма, вызвавший неоднозначную реакцию зрителей, фактически основан на оригинальной повести Стивена Кинга: там есть момент, когда Дэвид Дрэйтон предполагает такую возможность развития событий. Фрэнк Дарабонт решил, что неопределенный финал повести не годится для фильма и дописал историю до трагической кульминации. Посмотрев фильм, Стивен Кинг остался доволен и подтвердил, что это именно тот финал, который подразумевается в повести.
Реплика миссис Кармоди «Моя жизнь - за тебя» - это отсылка сразу к нескольким книгам Стивена Кинга, в которых фигурирует воплощение Вселенского Зла по имени Рэндалл Флагг. Эту фразу говорят разные персонажи, когда клянутся в верности Флаггу, в книгах «Противостояние» и «Глаза дракона», а также в романах из цикла «Темная Башня».
Во время первой схватки с монстрами в магазине Джо Иглтон опрокидывает вращающийся ажурный стеллаж с книгами. Все книги, стоящие на нем, - издания произведений Стивена Кинга (роман «Мобильник» и другие).
Аптека рядом с супермаркетом называется «Аптека Кинга» - это отсылка к автору оригинальной повести Стивену Кингу. Сам Кинг однажды снялся в роли фармацевта доктора Бангора в экранизации своего романа «Худеющий» (1996).

Format : Matroska
File size : 4.71 GiB
Duration : 2h 5mn
Overall bit rate : 5 350 Kbps
Movie name : The Mist (2007) BDRip
Encoded date : UTC 2011-04-18 11:33:31
Writing application : mkvmerge v4.4.0 ('Die Wiederkehr') built on Oct 31 2010 21:52:48
Writing library : libebml v1.0.0 + libmatroska v1.0.0
Cover : Yes

Video
ID : 1
Format : AVC
Format/Info : Advanced Video Codec
Format profile : High@L4.0
Format settings, CABAC : Yes
Format settings, ReFrames : 10 frames
Codec ID : V_MPEG4/ISO/AVC
Duration : 2h 5mn
Bit rate : 3 260 Kbps
Width : 1 184 pixels
Height : 640 pixels
Display aspect ratio : 1.850
Frame rate : 23.976 fps
Color space : YUV
Chroma subsampling : 4:2:0
Bit depth : 8 bits
Scan type : Progressive
Bits/(Pixel*Frame) : 0.179
Stream size : 2.87 GiB (61%)
Writing library : x264 core 115 r1937 aa21558
Encoding settings : cabac=1 / ref=10 / deblock=1:-2:-2 / analyse=0x3:0x133 / me=umh / subme=10 / psy=1 / psy_rd=1.15:0.10 / mixed_ref=1 / me_range=32 / chroma_me=1 / trellis=2 / 8x8dct=1 / cqm=0 / deadzone=21,11 / fast_pskip=1 / chroma_qp_offset=-3 / threads=6 / sliced_threads=0 / nr=0 / decimate=1 / interlaced=0 / bluray_compat=0 / constrained_intra=0 / bframes=9 / b_pyramid=2 / b_adapt=2 / b_bias=0 / direct=1 / weightb=1 / open_gop=0 / weightp=2 / keyint=250 / keyint_min=23 / scenecut=40 / intra_refresh=0 / rc=crf / mbtree=0 / crf=20.5 / qcomp=0.70 / qpmin=0 / qpmax=69 / qpstep=4 / ip_ratio=1.40 / pb_ratio=1.20 / aq=1:0.80
Language : English
Matrix coefficients : BT.709-5, BT.1361, IEC 61966-2-4 709, SMPTE RP177

Audio #1
ID : 2
Format : AC-3
Format/Info : Audio Coding 3
Mode extension : CM (complete main)
Codec ID : A_AC3
Duration : 2h 5mn
Bit rate mode : Constant
Bit rate : 384 Kbps
Channel(s) : 6 channels
Channel positions : Front: L C R, Side: L R, LFE
Sampling rate : 48.0 KHz
Bit depth : 16 bits
Compression mode : Lossy
Stream size : 346 MiB (7%)
Title : Dub
Language : Russian

Audio #2
ID : 3
Format : AC-3
Format/Info : Audio Coding 3
Mode extension : CM (complete main)
Codec ID : A_AC3
Duration : 2h 5mn
Bit rate mode : Constant
Bit rate : 384 Kbps
Channel(s) : 6 channels
Channel positions : Front: L C R, Side: L R, LFE
Sampling rate : 48.0 KHz
Bit depth : 16 bits
Compression mode : Lossy
Stream size : 346 MiB (7%)
Title : MVO (Kinomania)
Language : Russian

Audio #3
ID : 4
Format : AC-3
Format/Info : Audio Coding 3
Mode extension : CM (complete main)
Codec ID : A_AC3
Duration : 2h 5mn
Bit rate mode : Constant
Bit rate : 384 Kbps
Channel(s) : 6 channels
Channel positions : Front: L C R, Side: L R, LFE
Sampling rate : 48.0 KHz
Bit depth : 16 bits
Compression mode : Lossy
Stream size : 346 MiB (7%)
Title : MVO (Kravec)
Language : Russian

Audio #4
ID : 5
Format : AC-3
Format/Info : Audio Coding 3
Mode extension : CM (complete main)
Codec ID : A_AC3
Duration : 2h 5mn
Bit rate mode : Constant
Bit rate : 384 Kbps
Channel(s) : 6 channels
Channel positions : Front: L C R, Side: L R, LFE
Sampling rate : 48.0 KHz
Bit depth : 16 bits
Compression mode : Lossy
Stream size : 346 MiB (7%)
Title : AVO (Nemahov)
Language : Russian

Audio #5
ID : 6
Format : AC-3
Format/Info : Audio Coding 3
Mode extension : CM (complete main)
Codec ID : A_AC3
Duration : 2h 5mn
Bit rate mode : Constant
Bit rate : 448 Kbps
Channel(s) : 6 channels
Channel positions : Front: L C R, Side: L R, LFE
Sampling rate : 48.0 KHz
Bit depth : 16 bits
Compression mode : Lossy
Stream size : 404 MiB (8%)
Title : Original
Language : English

Text #1
ID : 7
Format : UTF-8
Codec ID : S_TEXT/UTF8
Codec ID/Info : UTF-8 Plain Text
Language : Russian

Text #2
ID : 8
Format : UTF-8
Codec ID : S_TEXT/UTF8
Codec ID/Info : UTF-8 Plain Text
Language : English

Menu
00:00:00.000 : en:The Storm
00:06:02.654 : en:Something in the Mist
00:17:34.428 : en:Weird Noises in the Dark
00:22:14.583 : en:Norm's Demise
00:28:42.220 : en:The Price of Disbelief
00:31:46.571 : en:All we Saw Were Tentacles
00:38:59.087 : en:The End of Days
00:41:40.957 : en:No Defense Against the Will of God
00:47:43.527 : en:It's Definetely Not Supernatural
00:54:28.432 : en:They Came Out of the Smoke; Locusts Upon the Earth
01:05:58.580 : en:Faith in Humanity
01:17:13.212 : en:Trip to the Pharmacy
01:25:25.495 : en:Expiation
01:29:20.730 : en:The Arrowhead Project
01:35:28.723 : en:Escape From the Market
01:41:05.685 : en:Encounters in the Mist
01:44:07.491 : en:Hopelessness
01:57:23.787 : en:End Credits

x264 [info]: frame I:1030 Avg QP:18.09 size: 76197 PSNR Mean Y:46.46 U:51.18 V:52.51 Avg:47.35 Global:46.48
x264 [info]: frame P:40700 Avg QP:19.86 size: 30439 PSNR Mean Y:46.09 U:51.90 V:53.04 Avg:47.03 Global:45.05
x264 [info]: frame B:139519 Avg QP:21.77 size: 13452 PSNR Mean Y:44.01 U:50.86 V:52.18 Avg:45.08 Global:44.20
x264 [info]: consecutive B-frames: 2.0% 2.4% 6.5% 28.8% 17.5% 38.0% 2.8% 1.5% 0.2% 0.4%
x264 [info]: mb I I16..4: 7.9% 83.6% 8.5%
x264 [info]: mb P I16..4: 1.1% 12.1% 1.1% P16..4: 51.1% 22.4% 3.0% 0.1% 0.1% skip: 8.9%
x264 [info]: mb B I16..4: 0.0% 0.8% 0.1% B16..8: 47.2% 10.8% 2.5% direct: 7.6% skip:31.0% L0:44.5% L1:48.6% BI: 6.9%
x264 [info]: 8x8 transform intra:84.5% inter:70.7%
x264 [info]: coded y,uvDC,uvAC intra: 91.5% 84.1% 57.5% inter: 33.8% 25.8% 3.4%
x264 [info]: i16 v,h,dc,p: 34% 17% 8% 42%
x264 [info]: i8 v,h,dc,ddl,ddr,vr,hd,vl,hu: 7% 7% 4% 11% 16% 15% 15% 12% 12%
x264 [info]: i4 v,h,dc,ddl,ddr,vr,hd,vl,hu: 8% 7% 2% 10% 17% 17% 16% 12% 13%
x264 [info]: i8c dc,h,v,p: 44% 21% 17% 19%
x264 [info]: Weighted P-Frames: Y:17.2% UV:9.0%
x264 [info]: ref P L0: 43.1% 10.7% 18.9% 7.3% 5.6% 4.3% 3.7% 2.2% 1.9% 1.8% 0.4% 0.1%
x264 [info]: ref B L0: 74.5% 11.7% 5.3% 2.7% 2.0% 1.5% 1.4% 0.6% 0.3%
x264 [info]: ref B L1: 93.3% 6.7%
x264 [info]: SSIM Mean Y:0.9710976 (15.391db)
x264 [info]: PSNR Mean Y:44.495 U:51.096 V:52.375 Avg:45.532 Global:44.391 kb/s:3380.25

encoded 181249 frames, 4.46 fps, 3380.26 kb/s


Релиз от группы






Скачать Мгла.The.Mist.(Фрэнк.Дарабонт.Frank.Darabont).[2007.ужасы.фантастика.триллер.BDRip-AVC].torrent без регистрации
Золото ЗОЛОТАЯ РАЗДАЧА! СКАЧАННОЕ НЕ ЗАСЧИТЫВАЕТСЯ! Золото
Дата: Зарегистрирован   [ Тип: внутренний ] Как тут cкачать?
MAGNET ссылка
MAGNET ссылка


Скачать .torrent

24 KB

Статус: проверено DHT
Скачан: торрент - 154 раз, раздача полностью - 70 раз
Размер: 4,71 GB
Оценка:  5 (Голосов: 2)
Поблагодарили: 1
Поделиться ссылкой на эту раздачу с друзьями:
В контактеFacebookОдноклассникиTwitterLivejournalМой МирLiveinternet
 

 
Показать сообщения:    


Вы не можете начинать темы
Вы не можете отвечать на сообщения
Вы не можете редактировать свои сообщения
Вы не можете удалять свои сообщения
Вы не можете голосовать в опросах
Вы не можете прикреплять файлы к сообщениям
Вы можете скачивать файлы