Loading...
Error

Скачать Отец родной / Padre Nuestro (Кристофер Салья / Christopher Zalla) [2007, триллер, драма, DVDRip] торрент без регистрации

 
Статистика раздачи
Размер:  1,37 GB   |    Скачан:  117 раз
Сидов:  1  [  0 KB/s  ]  
 
Автор Сообщение

МихаНЕзатор

[] 

Отец родной / Padre Nuestro


Страна: США, Аргентина
Жанр: триллер, драма
Год выпуска: 2007
Продолжительность: 1:51:23

Перевод: Профессиональный (многоголосый закадровый)
Cубтитры: нет
Режиссер: Кристофер Салья / Christopher Zalla

В ролях: Иисус Очоа, Армандо Хернандез, Хорхе Адриан Эспиндола, Паола Мендоза, Шон Эндрю, Leonardo Anzures, Луис Антонио Апонте, Жан Брассар, Barbara Danicka, Эудженио Дербез ...

Описание: Семнадцатилетний мексиканец Педро отправляется в Нью-Йорк на поиски отца. Он никогда его не видел и знает только, что того зовут Диего и ему принадлежит в Бруклине французский ресторан.

По дороге юноша доверяется своему сверстнику Хуану, который обманывает наивного попутчика и крадёт его вещи. Хуан начинает выдавать себя за Педро. Он надеется завоевать доверие Диего и выяснить, где тот прячет свои деньги.
Доп. информация:
Сандэнс, 2007 год
Победитель: Гран-при в категории «Драматический фильм»



Сэмпл: http://multi-up.com/475139
Качество видео: DVDRip
Формат видео: AVI

Видео: 704x288 (2.40:1), 25.000 fps, XviD, 1 300 Kbps, 0.256 bit/pixel
Аудио: 48 kHz, AC3 Dolby Digital, 6 ch, 448 kbps

General
Complete name : D:\Padre Nuestro (2007).avi
Format : AVI
Format/Info : Audio Video Interleave
File size : 1.37 GiB
Duration : 1h 51mn
Overall bit rate : 1 757 Kbps
Writing application : VirtualDubMod 1.5.10.2 (build 2540/release)
Writing library : VirtualDubMod build 2540/release

Video
ID : 0
Format : MPEG-4 Visual
Format profile : Advanced Simple@L5
Format settings, BVOP : Yes
Format settings, QPel : No
Format settings, GMC : No warppoints
Format settings, Matrix : Default (MPEG)
Muxing mode : Packed bitstream
Codec ID : XVID
Codec ID/Hint : XviD
Duration : 1h 51mn
Bit rate : 1 300 Kbps
Width : 704 pixels
Height : 288 pixels
Display aspect ratio : 2.40:1
Frame rate : 25.000 fps
Color space : YUV
Chroma subsampling : 4:2:0
Bit depth : 8 bits
Scan type : Progressive
Bits/(Pixel*Frame) : 0.256
Stream size : 1.01 GiB (74%)
Writing library : XviD 1.2.1 (UTC 2008-12-04)

Audio
ID : 1
Format : AC-3
Format/Info : Audio Coding 3
Mode extension : CM (complete main)
Codec ID : 2000
Duration : 1h 51mn
Bit rate mode : Constant
Bit rate : 448 Kbps
Channel(s) : 6 channels
Channel positions : Front: L C R, Side: L R, LFE
Sampling rate : 48.0 KHz
Bit depth : 16 bits
Stream size : 357 MiB (25%)
Alignment : Split accross interleaves
Interleave, duration : 40 ms (1.00 video frame)
Interleave, preload duration : 500 ms



Скачать Отец.родной.Padre.Nuestro.(Кристофер.Салья.Christopher.Zalla).[2007.триллер.драма.DVDRip].torrent без регистрации
Золото ЗОЛОТАЯ РАЗДАЧА! СКАЧАННОЕ НЕ ЗАСЧИТЫВАЕТСЯ! Золото
Дата: Зарегистрирован   [ Тип: внутренний ] Как тут cкачать?
MAGNET ссылка
MAGNET ссылка


Скачать .torrent

14 KB

Статус: проверено DHT
Скачан: торрент - 117 раз, раздача полностью - 8 раз
Размер: 1,37 GB
Оценка:  5 (Голосов: 1)
Поблагодарили: 0
Поделиться ссылкой на эту раздачу с друзьями:
В контактеFacebookОдноклассникиTwitterLivejournalМой МирLiveinternet
 

 
Показать сообщения:    


Вы не можете начинать темы
Вы не можете отвечать на сообщения
Вы не можете редактировать свои сообщения
Вы не можете удалять свои сообщения
Вы не можете голосовать в опросах
Вы не можете прикреплять файлы к сообщениям
Вы можете скачивать файлы