Loading...
Error

Скачать Район Мишн / La Mission (Ритер Бретт / Peter Bratt) [2009, США, психологическая драма, гей-тема, DVDRip] торрент без регистрации

 
Статистика раздачи
Размер:  1,37 GB   |    Скачан:  156 раз
Сидов:  1  [  0 KB/s  ]  
 
Автор Сообщение

МихаНЕзатор

[] 

Район Мишн / La Mission

Страна: США
Жанр: Психологическая драма
Год выпуска: 2009
Продолжительность: 01:55:39

Перевод: Любительский (одноголосый закадровый) Василий Кошкин
Cубтитры: нет
Режиссер: Питер Бретт / Peter Bratt

В ролях: Бенжамин Бретт, Джереми Рэй Вальдез, Макс Розенак, Эрика Александер, Джессе Бореро и др.

Описание: Будучи родом из старого района, Сан-Франциско, Че Ривера (Бенжамин Братт) с рождения был вынужден бороться за свою жизнь. Он стал уважаемым мужчиной в своем районе за свою силу, мужественность и прямолинейность, а также он известен как мастер по тюнингу красивейших авто. Отмотав срок в тюрьме и лечась от алкоголизма, Че прикладывает много усилий, чтобы восстановить свою прежнюю жизнь и поднять на ноги своего единственного сына Джеса, которого он растит один после смерти его матери. Но новая жизнь трещит по швам, когда Че узнаёт, что Джес - гей.
Свой жизненный путь Че всегда расчищал себе кулаками. Но настанет момент, когда ему придется заново учиться быть человеком.

Сэмпл: http://ifolder.ru/23013031

Качество видео: DVDRip
Формат видео: AVI

Видео: XVID, 576x320, 16:9, 25.000 fps, 1 491 Kbps,
Аудио: MP3, 44.1 KHz, 192 Kbps, 2 channels

General
Complete name : G:\На торрент\La Mission (USA 2009) rus.avi
Format : AVI
Format/Info : Audio Video Interleave
File size : 1.37 GiB
Duration : 1h 55mn
Overall bit rate : 1 690 Kbps

Video
ID : 0
Format : MPEG-4 Visual
Format profile : Advanced Simple@L5
Format settings, BVOP : No
Format settings, QPel : No
Format settings, GMC : No warppoints
Format settings, Matrix : Default (MPEG)
Codec ID : XVID
Codec ID/Hint : XviD
Duration : 1h 55mn
Bit rate : 1 491 Kbps
Width : 576 pixels
Height : 320 pixels
Display aspect ratio : 16:9
Frame rate : 25.000 fps
Resolution : 8 bits
Colorimetry : 4:2:0
Scan type : Progressive
Bits/(Pixel*Frame) : 0.323
Stream size : 1.20 GiB (88%)
Writing library : XviD 1.2.1 (UTC 2008-12-04)

Audio
ID : 1
Format : MPEG Audio
Format version : Version 1
Format profile : Layer 3
Codec ID : 55
Codec ID/Hint : MP3
Duration : 1h 55mn
Bit rate mode : Constant
Bit rate : 192 Kbps
Channel(s) : 2 channels
Sampling rate : 44.1 KHz
Stream size : 159 MiB (11%)
Alignment : Split accross interleaves
Interleave, duration : 80 ms (2.00 video frames)
Writing library : LAMELAME_MAJOR_VERSI



Скачать Район.Мишн.La.Mission.(Ритер.Бретт.Peter.Bratt).[2009.США.психологическая.драма.гей-тема.DVDRip].torrent без регистрации
Золото ЗОЛОТАЯ РАЗДАЧА! СКАЧАННОЕ НЕ ЗАСЧИТЫВАЕТСЯ! Золото
Дата: Зарегистрирован   [ Тип: внутренний ] Как тут cкачать?
MAGNET ссылка
MAGNET ссылка


Скачать .torrent

14 KB

Статус: проверено DHT
Скачан: торрент - 156 раз, раздача полностью - 101 раз
Размер: 1,37 GB
Оценка:  5 (Голосов: 1)
Поблагодарили: 1
Поделиться ссылкой на эту раздачу с друзьями:
В контактеFacebookОдноклассникиTwitterLivejournalМой МирLiveinternet
 

 

Inna622

[] 

Большое спасибо за файл, посмотрю и выражу свое мнение. У вас необыкновенный сайт, только я еще не во всем разобралась и многое не умею. Но за вашу работу заслуживаете 10000000..... ay
 
Показать сообщения:    


Вы не можете начинать темы
Вы не можете отвечать на сообщения
Вы не можете редактировать свои сообщения
Вы не можете удалять свои сообщения
Вы не можете голосовать в опросах
Вы не можете прикреплять файлы к сообщениям
Вы можете скачивать файлы