Loading...
Error

Скачать Сжечь корабли / Сжигая мосты / Burn the Bridges / Quemar las naves (Франциско Франко Альба / Francisco Franco Alba) [2007, драма, гей-тема, DVDRip] торрент без регистрации

 
Статистика раздачи
Размер:  1,24 GB   |    Скачан:  187 раз
Сидов:  1  [  0 KB/s  ]  
 
Автор Сообщение

МихаНЕзатор

[] 

Сжечь корабли / Сжигая мосты / Burn the Bridges / Quemar las naves

Страна: Мексика
Жанр: Драма
Год выпуска: 2007
Продолжительность: 01:44:26

Перевод: Любительский (одноголосый закадровый) Василий Кошкин
Cубтитры: нет
Режиссер: Франциско Франко Альба / Francisco Franco Alba

В ролях: Ирене Азуэла, Анхель Онесимо Неварез, Клаудетте Майлле, Бернардо Бенитез и др.

Описание: Это первый фильм для режиссёра Франсиско Франко. В основу сюжета положены отношения между Эленой, сестрой, и Себастьяном, братом. Их мать, певица Евгения Диас, больна раком и доживает свои последние дни. Элена безвылазно находится дома, ухаживая за матерью. Меланхоличный и женственный Себастьян днём учится в школе, а в свободное время рисует. Брат и сестра очень привязаны друг к другу, и их отношения иногда напоминают любовные. В школе Себастьяна опекает его одноклассник и друг семьи Исмаэль, сын очень богатых родителей. Исмаэлю пришлось вступиться за Себастьяна когда в неожиданной стычке дерзкий новичок по имени Хуан хотел уже затеять драку. С первого же взгляда между Себастьяном и Хуаном возник неподдельный интерес друг к другу, который резко повлиял на дальнейший ход событий. «Сжечь корабли» (или, как говорят у нас, "сжечь мосты") означает забыть о прошлой жизни и начать новую.

Сэмпл: http://ifolder.ru/23001842

Качество видео: DVDRip
Формат видео: AVI

Видео: XviD, 592x336, 16:9, 25.000 fps, 1 498 Kbps
Аудио: MP3, 44.1 KHz, 192 Kbps, 2 channels


General
Complete name : G:\На торрент\Quemar_las_naves rus.avi
Format : AVI
Format/Info : Audio Video Interleave
File size : 1.24 GiB
Duration : 1h 44mn
Overall bit rate : 1 700 Kbps

Video
ID : 0
Format : MPEG-4 Visual
Format profile : Advanced Simple@L5
Format settings, BVOP : No
Format settings, QPel : No
Format settings, GMC : No warppoints
Format settings, Matrix : Default (MPEG)
Codec ID : XVID
Codec ID/Hint : XviD
Duration : 1h 44mn
Bit rate : 1 498 Kbps
Width : 592 pixels
Height : 336 pixels
Display aspect ratio : 16:9
Frame rate : 25.000 fps
Resolution : 8 bits
Colorimetry : 4:2:0
Scan type : Progressive
Bits/(Pixel*Frame) : 0.301
Stream size : 1.09 GiB (88%)
Writing library : XviD 1.2.1 (UTC 2008-12-04)

Audio
ID : 1
Format : MPEG Audio
Format version : Version 1
Format profile : Layer 3
Codec ID : 55
Codec ID/Hint : MP3
Duration : 1h 44mn
Bit rate mode : Constant
Bit rate : 192 Kbps
Channel(s) : 2 channels
Sampling rate : 44.1 KHz
Stream size : 144 MiB (11%)
Alignment : Split accross interleaves
Interleave, duration : 40 ms (1.01 video frame)
Writing library : LAMELAME_MAJOR_VERSI



Скачать Сжечь.корабли.Сжигая.мосты.Burn.the.Bridges.Quemar.las.naves.(Франциско.Франко.Альба.Francisco.Franco.Alba).[2007.драма.гей-тема.DVDRip].torrent без регистрации
Золото ЗОЛОТАЯ РАЗДАЧА! СКАЧАННОЕ НЕ ЗАСЧИТЫВАЕТСЯ! Золото
Дата: Зарегистрирован   [ Тип: внутренний ] Как тут cкачать?
MAGNET ссылка
MAGNET ссылка


Скачать .torrent

13 KB

Статус: проверено DHT
Скачан: торрент - 187 раз, раздача полностью - 113 раз
Размер: 1,24 GB
Оценка:  5 (Голосов: 1)
Поблагодарили: 0
Поделиться ссылкой на эту раздачу с друзьями:
В контактеFacebookОдноклассникиTwitterLivejournalМой МирLiveinternet
 

 
Показать сообщения:    


Вы не можете начинать темы
Вы не можете отвечать на сообщения
Вы не можете редактировать свои сообщения
Вы не можете удалять свои сообщения
Вы не можете голосовать в опросах
Вы не можете прикреплять файлы к сообщениям
Вы можете скачивать файлы