Loading...
Error

Скачать Я никогда не буду твоей / I Could Never Be Your Woman (Эми Хекерлинг / Amy Heckerling) [2007, комедия, мелодрама, BDRip-AVC] торрент без регистрации

 
Статистика раздачи
Размер:  2,85 GB   |    Скачан:  116 раз
Сидов:  1  [  0 KB/s  ]  
 
Автор Сообщение

МихаНЕзатор

[] 

Я никогда не буду твоей / I Could Never Be Your Woman

Страна: США
Жанр: Комедия, мелодрама
Год выпуска: 2007
Продолжительность: 01:33:03

Перевод: Профессиональный (дублированный)
Cубтитры: Английские, испанские, болгарские, польские
Оригинальная аудиодорожка: английский

Режиссер: Эми Хекерлинг / Amy Heckerling

В ролях: Мишель Пфайффер, Пол Радд, Сирша Ронан, Стейси Дэш, Фред Уиллард, Джон Ловиц, Сара Александр, Трейси Уллмен, Ясмин Пейдж, Рори Копус, О. Т. Фагбенли, Jayden Berry-Garvey, Иддо Голдберг, Ной Маргеттс, Джонатан Риланд, Фил Корнуэлл, Рэй Такер, Грэхэм Нортон, Твинк Каплан, Оливия Колман, Селия Мейрас, Стив Пембертон, Саймон Кунц, Арчи Панджаби, Бен Беннетт, Чайк Чан, Джон Пол Хорсли, Маккензи Крук, Питер Поликарпу, Донья Кролл, Дэвид Митчел, Сэлли Келлермен, Эшли Ллойд, Трой Джентиле, Кассандра Белл, Эд Бирн, Сэм Фусаро, Джо Монтана, Виктория Чалая, Джеймс Харли, Дженнифер Симс, Джед Бернард, Michelle Kochanski, Мелани Мартин, Уоллес Шоун, Оуэн Стэнли, Генри Уинклер

Роли дублировали: Ольга Зубкова, Александр Комлев, Лиза Мартиросова, Виктор Петров, Олег Куценко, Ольга Кузнецова, Пётр Иващенко, Александр Груздев, Александр Рахленко, Дмитрий Филимонов, Андрей Казанцев, Олег Форостенко

Описание: Роузи работает телепродюсером, и в окружении молоденьких красавиц все больше переживает по поводу своего возраста и неудачного брака. Но в ее жизни происходит чудо, она встречает мужчину, который, несмотря на весьма молодой возраст, помогает ей не только вновь обрести чувство любви, но и заставляет ее вновь поверить в себя. Адам, обаятельный и яркий, меняет жизнь женщины. Тем временем дочь Роузи переживает свою первую влюбленность.



Качество видео: BDRip-AVC (с Blu-Ray Remux)
Формат видео: MKV

Видео: MPEG-4 AVC, 3500 Кбит/с, 1024x576, 25.000 fps
Аудио 1: Русский (AC3, 6 ch, 448 Кбит/с)
Аудио 2: Английский (AC3, 6 ch, 448 Кбит/с)
Формат субтитров: softsub (SRT)

D:\Ja.nikogda.ne.budu.tvoej.2007.x264.BDRip.(AVC).Kinozal.TV-AVC.mkv
General
Complete name : D:\Ja.nikogda.ne.budu.tvoej.2007.x264.BDRip.(AVC).Kinozal.TV-AVC.mkv
Format : Matroska
File size : 2.85 GiB
Duration : 1h 33mn
Overall bit rate : 4 387 Kbps
Movie name : I Could Never Be Your Woman (2007) - fanatus (kinozal.tv)
Encoded date : UTC 2011-04-15 08:01:42
Writing application : mkvmerge v3.4.0 ('Rapunzel')
Writing library : libebml v0.8.0 + libmatroska v0.9.0
Video #1
ID : 1
Format : AVC
Format/Info : Advanced Video Codec
Format profile : High@L4.1
Format settings, CABAC : Yes
Format settings, ReFrames : 6 frames
Muxing mode : Container profile=Unknown@4.1
Codec ID : V_MPEG4/ISO/AVC
Duration : 1h 33mn
Bit rate : 3 403 Kbps
Nominal bit rate : 3 500 Kbps
Width : 1 024 pixels
Height : 576 pixels
Display aspect ratio : 16:9
Frame rate : 25.000 fps
Resolution : 24 bits
Colorimetry : 4:2:0
Scan type : Progressive
Bits/(Pixel*Frame) : 0.231
Stream size : 2.21 GiB (78%)
Title : I Could Never Be Your Woman (2007)
Writing library : x264 core 114 r1913 5fd3dce
Encoding settings : cabac=1 / ref=6 / deblock=1:-3:-3 / analyse=0x3:0x133 / me=umh / subme=9 / psy=1 / psy_rd=1.10:0.20 / mixed_ref=1 / me_range=32 / chroma_me=1 / trellis=2 / 8x8dct=1 / cqm=0 / deadzone=21,11 / fast_pskip=0 / chroma_qp_offset=-3 / threads=3 / sliced_threads=0 / nr=0 / decimate=1 / interlaced=0 / constrained_intra=0 / bframes=8 / b_pyramid=2 / b_adapt=2 / b_bias=0 / direct=3 / weightb=1 / open_gop=0 / weightp=2 / keyint=250 / keyint_min=25 / scenecut=40 / intra_refresh=0 / rc_lookahead=40 / rc=2pass / mbtree=1 / bitrate=3500 / ratetol=1.0 / qcomp=0.80 / qpmin=10 / qpmax=51 / qpstep=4 / cplxblur=20.0 / qblur=0.5 / ip_ratio=1.40 / aq=1:1.00
Language : English
Audio #2
ID : 2
Format : AC-3
Format/Info : Audio Coding 3
Codec ID : A_AC3
Duration : 1h 33mn
Bit rate mode : Constant
Bit rate : 448 Kbps
Channel(s) : 6 channels
Channel positions : Front: L C R, Surround: L R, LFE
Sampling rate : 48.0 KHz
Stream size : 298 MiB (10%)
Title : Dub
Language : Russian
Audio #3
ID : 3
Format : AC-3
Format/Info : Audio Coding 3
Codec ID : A_AC3
Duration : 1h 33mn
Bit rate mode : Constant
Bit rate : 448 Kbps
Channel(s) : 6 channels
Channel positions : Front: L C R, Surround: L R, LFE
Sampling rate : 48.0 KHz
Stream size : 298 MiB (10%)
Title : Original
Language : English
Text #4
ID : 4
Format : UTF-8
Codec ID : S_TEXT/UTF8
Codec ID/Info : UTF-8 Plain Text
Language : English
Text #5
ID : 5
Format : UTF-8
Codec ID : S_TEXT/UTF8
Codec ID/Info : UTF-8 Plain Text
Language : Spanish
Text #6
ID : 6
Format : UTF-8
Codec ID : S_TEXT/UTF8
Codec ID/Info : UTF-8 Plain Text
Language : Bulgarian
Text #7
ID : 7
Format : UTF-8
Codec ID : S_TEXT/UTF8
Codec ID/Info : UTF-8 Plain Text
Language : Polish

---[NoImage] avs [info]: 1024x576p 1:1 @ 25/1 fps (cfr)
---[NoImage] x264 [info]: using SAR=1/1
---[NoImage] x264 [info]: using cpu capabilities: MMX2 SSE2Slow SlowCTZ
---[NoImage] x264 [info]: profile High, level 4.1
---[NoImage]
---[NoImage] x264 [info]: frame I:1175 Avg QP:17.67 size: 95892
---[NoImage] x264 [info]: frame P:29600 Avg QP:19.94 size: 29271
---[NoImage] x264 [info]: frame B:108791 Avg QP:20.96 size: 13374
---[NoImage] x264 [info]: consecutive B-frames: 1.8% 2.1% 6.8% 21.9% 14.4% 45.3% 5.8% 1.1% 0.9%
---[NoImage] x264 [info]: mb I I16..4: 7.3% 71.0% 21.7%
---[NoImage] x264 [info]: mb P I16..4: 1.2% 13.6% 2.1% P16..4: 46.4% 22.3% 6.8% 0.6% 0.5% skip: 6.5%
---[NoImage] x264 [info]: mb B I16..4: 0.1% 1.5% 0.2% B16..8: 39.8% 11.6% 3.2% direct: 9.5% skip:34.1% L0:41.6% L1:41.2% BI:17.2%
---[NoImage] x264 [info]: 8x8 transform intra:79.6% inter:63.3%
---[NoImage] x264 [info]: direct mvs spatial:98.2% temporal:1.8%
---[NoImage] x264 [info]: coded y,uvDC,uvAC intra: 88.9% 93.4% 79.7% inter: 32.1% 40.5% 15.1%
---[NoImage] x264 [info]: i16 v,h,dc,p: 35% 12% 11% 43%
---[NoImage] x264 [info]: i8 v,h,dc,ddl,ddr,vr,hd,vl,hu: 14% 9% 7% 8% 12% 14% 11% 13% 12%
---[NoImage] x264 [info]: i4 v,h,dc,ddl,ddr,vr,hd,vl,hu: 14% 8% 4% 8% 15% 16% 12% 12% 11%
---[NoImage] x264 [info]: i8c dc,h,v,p: 46% 16% 20% 18%
---[NoImage] x264 [info]: Weighted P-Frames: Y:1.3% UV:0.6%
---[NoImage] x264 [info]: ref P L0: 42.1% 13.3% 22.0% 7.8% 8.1% 6.3% 0.5% 0.0%
---[NoImage] x264 [info]: ref B L0: 72.2% 14.9% 8.7% 3.0% 1.2%
---[NoImage] x264 [info]: ref B L1: 91.0% 9.0%
---[NoImage] x264 [info]: kb/s:3488.00



Скачать Я.никогда.не.буду.твоей.I.Could.Never.Be.Your.Woman.(Эми.Хекерлинг.Amy.Heckerling).[2007.комедия.мелодрама.BDRip-AVC].torrent без регистрации
Золото ЗОЛОТАЯ РАЗДАЧА! СКАЧАННОЕ НЕ ЗАСЧИТЫВАЕТСЯ! Золото
Дата: Зарегистрирован   [ Тип: внутренний ] Как тут cкачать?
MAGNET ссылка
MAGNET ссылка


Скачать .torrent

15 KB

Статус: проверено DHT
Скачан: торрент - 116 раз, раздача полностью - 7 раз
Размер: 2,85 GB
Оценка:  5 (Голосов: 1)
Поблагодарили: 0
Поделиться ссылкой на эту раздачу с друзьями:
В контактеFacebookОдноклассникиTwitterLivejournalМой МирLiveinternet
 

 
Показать сообщения:    


Вы не можете начинать темы
Вы не можете отвечать на сообщения
Вы не можете редактировать свои сообщения
Вы не можете удалять свои сообщения
Вы не можете голосовать в опросах
Вы не можете прикреплять файлы к сообщениям
Вы можете скачивать файлы