Loading...
Error

Скачать Мальчикам это нравится / The House Bunny (Фред Вульф / Fred Wolf) [2008, молодежная комедия, мелодрама, HDRip] [Dub] торрент без регистрации

 
Статистика раздачи
Размер:  730 MB   |    Скачан:  159 раз
Сидов:  1  [  0 KB/s  ]  
 
Автор Сообщение

МихаНЕзатор

[] 

Мальчикам это нравится / The House Bunny
«Она думает, что знает о любви всё»
Страна: США
Жанр: молодежная комедия, мелодрама
Год выпуска: 2008
Продолжительность: 01:37:01

Перевод: Профессиональный (дублированный)
Cубтитры: нет
Режиссер: Фред Вульф / Fred Wolf

В ролях: Анна Фарис, Колин Хэнкс, Эмили Стоун, Кэт Деннингс, Кэтрин МакФи, Беверли Д'Анджело, Дэна Мин Гудман, Лорен Хилл, Келлан Рхуде, Кили Уильямс, Моне Мазур, Румер Уиллис.

Описание: Беззаботная и красочная «ванильно-карамельная» жизнь соблазнительной девушки-модели в особняке «Плейбой» в один миг превращается в проживание в собственном полуразвалившемся автомобиле. Неожиданно звездной девушке, привыкшей относиться к себе как к очаровательному розовому зайчику — символу мужских соблазнов — выпадает уникальный шанс: вновь обрести жилье и стать предводительницей клана «серых мышек». Девушки из студенческого общежития Альфа Зета Альфа находятся в плачевном состоянии. Странноватые, чудаковатые, неприглядные — индивидуалистки, которые твердо убеждены, что выделяться надо умом, а не внешностью. Но это убеждение может стоить им жилья. Так как общежитие может существовать лишь за счет пополнения новыми членами. На фоне их привлекательного и яркого соперника — общежития Фи Йота Мю — у девушек нет ни малейших шансов. У них не было бы шансов, не появись у них Шелли — эксперт по популярности у парней и секретам женской привлекательности!

Качество видео: HDRip (BDRip 1080p)
Формат видео: AVI

Видео: 640x272 (2.35:1), 23.976 fps, XviD build 62 ~848 kbps avg, 0.20 bit/pixel
Аудио: 48 kHz, MPEG Layer 3, 2 ch, ~192.00 kbps avg

Релиз:

бюджет $25 000 000
сборы в США $48 237 389
сборы в мире + $22 205 551 = $70 442 940
сборы в России $1 609 264
DVD в США $12 266 321

В оригинале
http://screenshotcomparison.com/comparison/44045/picture:0

Растянутое
http://screenshotcomparison.com/comparison/44049/picture:0

+ мой рип идет на 4 минуты дольше.

General
Complete name : C:\Documents and Settings\Администратор\Рабочий стол\The House Bunny.HDrip.Rutracker.org._Drek.avi
Format : AVI
Format/Info : Audio Video Interleave
File size : 730 MiB
Duration : 1h 37mn
Overall bit rate : 1 049 Kbps
Writing application : VirtualDubModRus 1.5.10.2 (build 2542/release)
Writing library : VirtualDubMod build 2542/release

Video
ID : 0
Format : MPEG-4 Visual
Format profile : Advanced Simple@L5
Format settings, BVOP : Yes
Format settings, QPel : No
Format settings, GMC : No warppoints
Format settings, Matrix : Default (MPEG)
Codec ID : XVID
Codec ID/Hint : XviD
Duration : 1h 37mn
Bit rate : 848 Kbps
Width : 640 pixels
Height : 272 pixels
Display aspect ratio : 2.35:1
Frame rate : 23.976 fps
Resolution : 8 bits
Colorimetry : 4:2:0
Scan type : Progressive
Bits/(Pixel*Frame) : 0.203
Stream size : 590 MiB (81%)
Writing library : XviD 62

Audio
ID : 1
Format : MPEG Audio
Format version : Version 1
Format profile : Layer 3
Codec ID : 55
Codec ID/Hint : MP3
Duration : 1h 37mn
Bit rate mode : Constant
Bit rate : 192 Kbps
Channel(s) : 2 channels
Sampling rate : 48.0 KHz
Stream size : 134 MiB (18%)
Alignment : Aligned on interleaves
Interleave, duration : 42 ms (1.00 video frame)
Interleave, preload duration : 504 ms
Writing library : LAME3.98r
Encoding settings : -m s -V 4 -q 2 -lowpass 18.6 -b 192



Скачать Мальчикам.это.нравится.The.House.Bunny.(Фред.Вульф.Fred.Wolf).[2008.молодежная.комедия.мелодрама.HDRip].[Dub].torrent без регистрации
Золото ЗОЛОТАЯ РАЗДАЧА! СКАЧАННОЕ НЕ ЗАСЧИТЫВАЕТСЯ! Золото
Дата: Зарегистрирован   [ Тип: внутренний ] Как тут cкачать?
MAGNET ссылка
MAGNET ссылка


Скачать .torrent

29 KB

Статус: проверено DHT
Скачан: торрент - 159 раз, раздача полностью - 2 раз
Размер: 730 MB
Оценка:  - (Голосов: 0)
Поблагодарили: 0
Поделиться ссылкой на эту раздачу с друзьями:
В контактеFacebookОдноклассникиTwitterLivejournalМой МирLiveinternet
 

 
Показать сообщения:    


Вы не можете начинать темы
Вы не можете отвечать на сообщения
Вы не можете редактировать свои сообщения
Вы не можете удалять свои сообщения
Вы не можете голосовать в опросах
Вы не можете прикреплять файлы к сообщениям
Вы можете скачивать файлы