Loading...
Error

Скачать Мария-Антуанетта / Marie Antoinette (София Коппола / Sofia Coppola) [2006, драма, биография, история, HDTVRip] торрент без регистрации

 
Статистика раздачи
Размер:  748 MB   |    Скачан:  150 раз
Сидов:  1  [  0 KB/s  ]  
 
Автор Сообщение

МихаНЕзатор

[] 

Мария-Антуанетта / Marie Antoinette


Страна: США , Франция , Япония
Жанр: Драма, Биография, История
Год выпуска: 2006
Продолжительность: 02:02:50

Перевод: Профессиональный (многоголосый закадровый)

Cубтитры: Нет

Режиссер: София Коппола / Sofia Coppola

В ролях: Кирстен Данст, Джейсон Шварцман, Джуди Дэвис, Рип Торн, Роуз Бирн, Азия Ардженто, Молли Шеннон, Ширли Хендерсон, Дэнни Хьюстон, Марианна Фэйтфулл и др.

Описание: В 14 лет Марию Антуанетту выдали за дофина Франции. Короткий период ее популярности как супруги Людовика XVI сменился в 1774 году осуждением за легкомысленное и эксцентричное поведение на многочисленных празднествах, которые она устраивала в небольшой загородной усадьбе Малый Трианон близ Версаля (подарок Людовика XVI).

Трудные времена Французской революции королева Мария Антуанетта встретила мужественно и с достоинством. Ее тесные связи с Австрией и поддержка иностранной интервенции были столь явными, что суд вынес решение о казни. Попытки освободить Марию Антуанетту провалились.

16 октября 1793 года Мария Антуанетта, жена французского короля Людовика XVI, была обезглавлена на центральной площади Парижа по приговору революционного трибунала, который несколькими днями ранее казнил её мужа Людовика. В вину королеве вменялось предательство и шпионаж в пользу других стран...

Качество видео: HDTVRip - Rip by AngelOfTrue

Формат видео: AVI

Видео: Xvid, 656x368, 23.98fps, 714Kbps
Аудио: MPEG Audio Layer 3, 48000Hz, stereo, 128kbps

Дополнительная информация:

Релиз групп RG Torrents.ru и All Films

Format : AVI
Format/Info : Audio Video Interleave
File size : 748 MiB
Duration : 2h 2mn
Overall bit rate : 851 Kbps
Writing application : VirtualDubMod 1.5.10.3 | www.virtualdub-fr.org || (build 2550/release)
Writing library : VirtualDubMod build 2550/release

Video
ID : 0
Format : MPEG-4 Visual
Format profile : Advanced Simple@L5
Format settings, BVOP : 1
Format settings, QPel : No
Format settings, GMC : No warppoints
Format settings, Matrix : Custom
Codec ID : XVID
Codec ID/Hint : XviD
Duration : 2h 2mn
Bit rate : 714 Kbps
Width : 656 pixels
Height : 368 pixels
Display aspect ratio : 16:9
Frame rate : 23.976 fps
Color space : YUV
Chroma subsampling : 4:2:0
Bit depth : 8 bits
Scan type : Progressive
Compression mode : Lossy
Bits/(Pixel*Frame) : 0.123
Stream size : 627 MiB (84%)
Writing library : XviD 1.2.1 (UTC 2008-12-04)

Audio
ID : 1
Format : MPEG Audio
Format version : Version 1
Format profile : Layer 3
Codec ID : 55
Codec ID/Hint : MP3
Duration : 2h 2mn
Bit rate mode : Constant
Bit rate : 128 Kbps
Channel(s) : 2 channels
Sampling rate : 48.0 KHz
Compression mode : Lossy
Stream size : 112 MiB (15%)
Alignment : Aligned on interleaves
Interleave, duration : 42 ms (1.00 video frame)
Interleave, preload duration : 504 ms
Writing library : LAME3.98r
Encoding settings : -m s -V 4 -q 2 -lowpass 17 -b 128



Скачать Мария-Антуанетта.Marie.Antoinette.(София.Коппола.Sofia.Coppola).[2006.драма.биография.история.HDTVRip].torrent без регистрации
Золото ЗОЛОТАЯ РАЗДАЧА! СКАЧАННОЕ НЕ ЗАСЧИТЫВАЕТСЯ! Золото
Дата: Зарегистрирован   [ Тип: внутренний ] Как тут cкачать?
MAGNET ссылка
MAGNET ссылка


Скачать .torrent

15 KB

Статус: проверено DHT
Скачан: торрент - 150 раз, раздача полностью - 89 раз
Размер: 748 MB
Оценка:  5 (Голосов: 1)
Поблагодарили: 2
Поделиться ссылкой на эту раздачу с друзьями:
В контактеFacebookОдноклассникиTwitterLivejournalМой МирLiveinternet
 

 
Показать сообщения:    


Вы не можете начинать темы
Вы не можете отвечать на сообщения
Вы не можете редактировать свои сообщения
Вы не можете удалять свои сообщения
Вы не можете голосовать в опросах
Вы не можете прикреплять файлы к сообщениям
Вы можете скачивать файлы