Loading...
Error

Скачать Лабиринт страха 3D / The shock labirinth 3D (Такаши Шимицу/Takashi Shimizu) [2009, мovie horror, DVDRip] торрент без регистрации

 
Статистика раздачи
Размер:  1,16 GB   |    Скачан:  142 раза
Сидов:  1  [  0 KB/s  ]  
 
Автор Сообщение

МихаНЕзатор

[] 

Лабиринт страха 3D / The shock labirinth 3 D

Страна: Япония
Жанр: Ужасы
Год выпуска: 2009
Продолжительность: 1:28:55

Перевод: Любительский (одноголосый закадровый) Доп.инфо о переводе Диман_MF
Cубтитры: нет
Оригинальная аудиодорожка: итальянский

Режиссер: Такаши Шимицу/Takashi Shimizu

В ролях: Юя Ягира, Ай Маэда, Судзуки Мацуо, Ре Кацудзи.

Описание: 10 лет назад компания одноклассников оставила Юки в «Лабиринте Страха» — аттракционе местного Парка развлечений. Спустя 10 лет она вернется за ними, чтобы отомстить...

Доп. информация: Первый азиатский хоррор в 3D-формате, от создателя серии "Проклятье".

Сэмпл |

Качество видео: DVDRip
Формат видео: AVI

Видео: XVID,MPEG-4 Visual,720*480,3:2,1593 Кбит/сек,29,970 кадр/сек
Аудио: MP3, 44,1 КГц, 256 Кбит/сек, 2 канала.

Формат : AVI
Формат/Информация : Audio Video Interleave
Размер файла : 1,16 Гбайт
Продолжительность : 1 ч. 28 м.
Общий поток : 1862 Кбит/сек

Видео
Идентификатор : 0
Формат : MPEG-4 Visual
Профиль формата : Advanced Simple@L4
Параметр BVOP формата : Нет
Параметр QPel формата : Нет
Параметр GMC формата : Без точки перехода
Параметр матрицы формата : Default (H.263)
Идентификатор кодека : XVID
Идентификатор кодека/Подсказка : XviD
Продолжительность : 1 ч. 28 м.
Битрейт : 1593 Кбит/сек
Ширина : 720 пикс.
Высота : 480 пикс.
Соотношение сторон : 3:2
Частота кадров : 29,970 кадр/сек
Стандарт вещания : NTSC
Цветовое пространство : YUV
Подвыборка цветности : 4:2:0
Битовая глубина : 8 бит
Тип развёртки : Прогрессивная
Метод сжатия : С потерями
Бит/(Пиксели*Кадры) : 0.154
Размер потока : 1013 Мбайт (86%)

Аудио
Идентификатор : 1
Формат : MPEG Audio
Версия формата : Version 1
Профиль формата : Layer 3
Идентификатор кодека : 55
Идентификатор кодека/Подсказка : MP3
Продолжительность : 1 ч. 28 м.
Вид битрейта : Постоянный
Битрейт : 256 Кбит/сек
Канал(ы) : 2 канала(ов)
Частота : 44,1 КГц
Метод сжатия : С потерями
Размер потока : 163 Мбайт (14%)
Выравнивание : Разделение по промежуткам
Продолжительность промежутка : 26 мс. (0,78 видеокадр)
Библиотека кодирования : LAMEЄц”B@B / LЄG<™’Вµ



Скачать Лабиринт.страха.3D.The.shock.labirinth.3D.(Такаши.Шимицу.Takashi.Shimizu).[2009.мovie.horror.DVDRip].torrent без регистрации
Золото ЗОЛОТАЯ РАЗДАЧА! СКАЧАННОЕ НЕ ЗАСЧИТЫВАЕТСЯ! Золото
Дата: Зарегистрирован   [ Тип: внутренний ] Как тут cкачать?
MAGNET ссылка
MAGNET ссылка


Скачать .torrent

12 KB

Статус: проверено DHT
Скачан: торрент - 142 раз, раздача полностью - 42 раз
Размер: 1,16 GB
Оценка:  5 (Голосов: 1)
Поблагодарили: 1
Поделиться ссылкой на эту раздачу с друзьями:
В контактеFacebookОдноклассникиTwitterLivejournalМой МирLiveinternet
 

 
Показать сообщения:    


Вы не можете начинать темы
Вы не можете отвечать на сообщения
Вы не можете редактировать свои сообщения
Вы не можете удалять свои сообщения
Вы не можете голосовать в опросах
Вы не можете прикреплять файлы к сообщениям
Вы можете скачивать файлы