Loading...
Error

Скачать Свадьба белой ночью / Brúðguminn / White Night Wedding (2007) DVDRip | Лицензия торрент без регистрации

 
Статистика раздачи
Размер:  747 MB   |    Скачан:  104 раза
Сидов:  1  [  0 KB/s  ]  
 
Автор Сообщение

МихаНЕзатор

[] 

Информация о фильме
Название: Свадьба белой ночью
Оригинальное название: BrЄ guminn / White Night Wedding
Год выхода: 2007
Жанр: драма
Режиссер: Бальтасар Кормакур / Baltasar Korm‘kur
В ролях: Хилмир Снаэр Гуднасон, Маргрет Вильялмсдоттир, Лофи Эльясдоттир, Тростур Лео Гуннарссон, Йохан Сигуроарсон, ѓlafќa Hr¦nn JЈnsdЈttir, Олафур Дарри Олафссон, Илмур Кристьянсдоттир, Олафур Эгилссон, Карл Гудмундсон

О фильме:
Возможно, темной ночью это не так заметно, а вот под белым ночным небом Исландии становится очевидно: жених и невеста совсем по-разному волнуются перед бракосочетанием. И если девушка беспокоится о платье и прическе, то старый профессор совершенно не знает, что делать с долгами и родителями невесты, которые не в восторге от зятя-ровесника. Да и предыдущая жена не оставила новобрачному иллюзий по поводу семейной жизни. Так зачем жениться?


Страна: Исландия
Продолжительность: 01:33:44
Перевод: Профессиональный (многоголосый, закадровый) | Лицензия

Файл
Кодек: XviD / Mp3
Качество: DVDRip
Видео: XviD, 624x272 (2.25:1), 25.000 fps, 980 Kbps (0.231 bit/pixel)
Звук: MP3, 48.0 KHz, 2 ch, 128 Kbps, CBR (Russian)
General
Complete name : E:BrЄ guminn_[Rutor.org].avi
Format : AVI
Format/Info : Audio Video Interleave
File size : 747 MiB
Duration : 1h 33mn
Overall bit rate : 1 115 Kbps
Writing application : VirtualDubMod 1.5.4.1 (build 2178/release)
Writing library : VirtualDubMod build 2178/release

Video
ID : 0
Format : MPEG-4 Visual
Format profile : Advanced Simple@L5
Format settings, BVOP : 1
Format settings, QPel : No
Format settings, GMC : No warppoints
Format settings, Matrix : Custom
Codec ID : XVID
Codec ID/Hint : XviD
Duration : 1h 33mn
Bit rate : 980 Kbps
Width : 624 pixels
Height : 272 pixels
Display aspect ratio : 2.25:1
Frame rate : 25.000 fps
Color space : YUV
Chroma subsampling : 4:2:0
Bit depth : 8 bits
Scan type : Progressive
Compression mode : Lossy
Bits/(Pixel*Frame) : 0.231
Stream size : 657 MiB (88%)
Writing library : XviD 62

Audio
ID : 1
Format : MPEG Audio
Format version : Version 1
Format profile : Layer 3
Mode : Joint stereo
Mode extension : MS Stereo
Codec ID : 55
Codec ID/Hint : MP3
Duration : 1h 33mn
Bit rate mode : Constant
Bit rate : 128 Kbps
Channel(s) : 2 channels
Sampling rate : 48.0 KHz
Compression mode : Lossy
Stream size : 85.8 MiB (11%)
Alignment : Aligned on interleaves
Interleave, duration : 80 ms (2.00 video frames)
Interleave, preload duration : 504 ms
Writing library : LAME3.98r
Encoding settings : -m j -V 4 -q 2 -lowpass 17 -b 128
Language : Russian



Скачать Свадьба.белой.ночью.Brúðguminn.White.Night.Wedding.(2007).DVDRip.|.Лицензия.torrent без регистрации
Золото ЗОЛОТАЯ РАЗДАЧА! СКАЧАННОЕ НЕ ЗАСЧИТЫВАЕТСЯ! Золото
Дата: Зарегистрирован   [ Тип: внутренний ] Как тут cкачать?
MAGNET ссылка
MAGNET ссылка


Скачать .torrent

15 KB

Статус: проверено DHT
Скачан: торрент - 104 раз, раздача полностью - 2 раз
Размер: 747 MB
Оценка:  5 (Голосов: 1)
Поблагодарили: 0
Поделиться ссылкой на эту раздачу с друзьями:
В контактеFacebookОдноклассникиTwitterLivejournalМой МирLiveinternet
 

 
Показать сообщения:    


Вы не можете начинать темы
Вы не можете отвечать на сообщения
Вы не можете редактировать свои сообщения
Вы не можете удалять свои сообщения
Вы не можете голосовать в опросах
Вы не можете прикреплять файлы к сообщениям
Вы можете скачивать файлы