Loading...
Error

Скачать Искупление / Atonement (Джо Райт / Joe Wright) [2007 г., Мелодрама, Драма, Военный, HDRip] торрент без регистрации

 
Статистика раздачи
Размер:  1,45 GB   |    Скачан:  227 раз
Сидов:  1  [  0 KB/s  ]  
 
Автор Сообщение

onealoner

[] 

Искупление / Atonement



Год выпуска: 2007
Выпущено: Франция/Великобритания, Universal Pictures
Жанр: Мелодрама, Драма, Военный
Продолжительность: 02:02:53
Перевод: Профессиональный (полное дублирование)

Режиссер: Джо Райт / Joe Wright

В ролях:
Кира Найтли, Джеймс МакЭвой, Ромола Гарай, Сирша Ронан, Бренда Блетин, Ванесса Редгрейв, Джуно Темпл, Джина МакКи, Альфи Оуэн-Аллен, Мишель Дункан, Харрье Уолтер, Нонсо Анози, Дэниел Мэйс


Описание:
13-летняя Бриони обладает превосходным воображением и пишет пьесы. Она знает, что сын прислуги Робби влюблен в ее старшую сестру Сесилию и та отвечает ему взаимностью. Но когда ее кузина Лола становится жертвой насильника, Бриони уверенно показывает на Робби — ее воображение дорисовывает картину насилия. Робби отправляется в тюрьму, а Сесилия отказывается верить Бриони, рождая страшную вражду между сестрами. Действие фильма начинается в 1934 году и разворачивается на фоне Второй мировой войны.

Качество: HDRip
Формат: AVI
Видео кодек: XviD
Аудио кодек: AC3
Видео: 720x384 (1.88:1), 23.976 fps, XviD build 50 ~1312 kbps avg, 0.20 bit/pixel
Аудио: 48 kHz, AC3 Dolby Digital, 3/2 (L,C,R,l,r) + LFE ch, ~384.00 kbps avg


Код:
General
Complete name : C:\Iskuplenie.HDRip.Rus.Xvid.AC3._Chazzy_.avi
Format : AVI
Format/Info : Audio Video Interleave
File size : 1.45 GiB
Duration : 2h 2mn
Overall bit rate : 1 694 Kbps
Writing application : VirtualDubMod 1.5.10.2 (build 2540/release)
Writing library : VirtualDubMod build 2540/release
Video
Format : MPEG-4 Visual
Format profile : Streaming Video@L1
Format settings, BVOP : Yes
Format settings, QPel : No
Format settings, GMC : No warppoints
Format settings, Matrix : Default
Codec ID : XVID
Codec ID/Hint : XviD
Duration : 2h 2mn
Bit rate : 1 313 Kbps
Width : 720 pixels
Height : 384 pixels
Display aspect ratio : 1.875
Frame rate : 23.976 fps
Resolution : 24 bits
Colorimetry : 4:2:0
Scan type : Progressive
Bits/(Pixel*Frame) : 0.198
Stream size : 1.13 GiB (77%)
Writing library : XviD 1.2.1 (UTC 2008-12-04)
Audio
Format : AC-3
Format/Info : Audio Coding 3
Codec ID : 2000
Duration : 1h 59mn
Bit rate mode : Constant
Bit rate : 384 Kbps
Channel(s) : 6 channels
Channel positions : Front: L C R, Surround: L R, LFE
Sampling rate : 48.0 KHz
Stream size : 327 MiB (22%)
Alignment : Split accross interleaves
Interleave, duration : 43 ms (1.03 video frame)
Interleave, preload duration : 500 ms

* По сюжету Кира Найтли играет старшую сестру героини Ромолы Гарай, хотя в реальной жизни Гарай почти на три года старше Найтли.
* Роль Эмили Таллис могла достаться Эмили Уотсон и Кристин Скотт Томас.
* Эбби Корниш должна была получить роль 18-летней Бриони, но выбыла из проекта из-за занятости в картине «Золотой век» (2007).
* Изначально режиссёр фильма Джо Райт хотел, чтобы роль повзрослевшей Бриони сыграла Кира Найтли, но ей с самого начала больше пришёлся по душе персонаж Сесилии. К тому же актрисе хотелось окончательно избавиться от приклеившегося к ней образа юной девушки на рубеже взросления и сыграть, наконец, взрослого и сформировавшегося персонажа.
* Сцены с участием Ромолы Гарай были отсняты всего за 4 дня.
* Премьера фильма открывала ежегодный Венецианский кинофестиваль. 35-летний Джо Райт стал самым молодым режиссёром за всю историю этого престижнейшего кинофорума, который удостаивался такой чести.
* Для воссоздания французского Дюнкерка был использован небольшой британский городок Редкар. Местная администрация дала разрешение съёмочной группе на возведение павильона и размещение на берегу обломков разбитого корабля для создания полной аутентичности. Ряд домов вдоль береговой линии был перекрашен, чтобы соответствовать описываемому в фильме периоду, косметические изменения были внесены также во внешний вид кинотеатра и гостиницы. По завершении продлившихся три дня съёмок всё было возвращено в прежнее состояние. Все расходы на возведение съёмочной площадки в Редкаре составили около миллиона британских фунтов.
* В качестве статистов на роль британских солдат были приглашены жители Редкара, каждый из которых получил за свою работу по 50 британских фунтов.
* Некоторые сцены, действие в которых происходило на улицах Дюнкерка, были сняты в доках британского портового города Гримсби.
* Чтобы лучше воссоздать атмосферу Англии военного времени режиссёр Джо Райт потратил немало времени на просмотр многих британских кинолент 40-х годов, среди которых были Ребекка (1940) и «Короткая встреча» (1945). Последняя оказала наиболее заметное влияние на его работу над проектом.
* Копии фильма доставлялись в кинотеатры под фальшивым названием «Суббота», что является названием следующего после «Искупления», хотя и не связанного с ним, романа Иена МакЮэна.
* Исполнитель одной из главных ролей в картине Джеймс МакЭвой назвал сценарий «Искупления» лучшим из всех, которые когда-либо попадали ему в руки.
* Фильм стал одним из первых иностранных фильмов, которые вышли на экраны Китая 22 февраля 2008 года, после нескольких месяцев неофициального запрета на прокат зарубежных кинолент в кинотеатрах КНР.








Скачать Искупление.Atonement.(Джо.Райт.Joe.Wright).[2007.г.Мелодрама.Драма.Военный.HDRip].torrent без регистрации
Золото ЗОЛОТАЯ РАЗДАЧА! СКАЧАННОЕ НЕ ЗАСЧИТЫВАЕТСЯ! Золото
Дата: Зарегистрирован   [ Тип: внутренний ] Как тут cкачать?
MAGNET ссылка
MAGNET ссылка


Скачать .torrent

15 KB

Статус: проверено DHT
Скачан: торрент - 227 раз, раздача полностью - 415 раз
Размер: 1,45 GB
Оценка:  5 (Голосов: 1)
Поблагодарили: 3
Поделиться ссылкой на эту раздачу с друзьями:
В контактеFacebookОдноклассникиTwitterLivejournalМой МирLiveinternet
 

 
Показать сообщения:    


Вы не можете начинать темы
Вы не можете отвечать на сообщения
Вы не можете редактировать свои сообщения
Вы не можете удалять свои сообщения
Вы не можете голосовать в опросах
Вы не можете прикреплять файлы к сообщениям
Вы можете скачивать файлы