Loading...
Error

Скачать Приказано уничтожить / Executive Decision (Стюарт Бейрд) [1996, боевик, триллер, приключения, HDTVRip] торрент без регистрации

 
Статистика раздачи
Размер:  2,19 GB   |    Скачан:  160 раз
Сидов:  1  [  0 KB/s  ]  
 
Автор Сообщение

Moln!a

[] 

Приказано уничтожить / Executive Decision (1996) HDTVRip

Страна: США
Жанр: боевик, триллер, приключения
Год выпуска: 1996
Продолжительность: 2:12:44

Перевод: Профессиональный (дублированный)
Cубтитры: русские, английские - отдельно
Оригинальная аудиодорожка: английский

Режиссер: Стюарт Бейрд

В ролях: Курт Рассел, Стивен Сигал, Холли Берри, Джон Легуизамо, Оливер Плэтт, Джо Мортон, Б.Д. Вонг, Лен Кариу, Уип Хабли, Андреас Катсулас, Мэри Эллен Трейнор, Марла Мэйплс, Дж.Т. Уолш, Инго Нойхаус, Пол Коллинз, Николас Прайор, Юджин Роч, Кен Дженкинс, Дей Янг, Ричард Риле, Джей Таваре, Ахмед Ахмед, Шон Тоуб, Дэвид Суше

Описание: Задание: проникнуть на борт находящегося в воздухе на высоте 5 миль над землей «Боинга 747», захваченного террористами. Провести операцию скрытно. Найти и обезвредить находящуюся на боевом взводе бомбу, способную уничтожить все население восточных прибрежных штатов. Сделать это в отсутствии радиосвязи с землей, прежде, чем у военных сдадут нервы и они отдадут приказ уничтожить авиалайнер ракетной атакой.

Доп. информация:

Качество видео: HDTVRip(Исх. HDTVRip 720)
Формат видео: AVI

Видео: 720x304 (2.37:1), 23.976 fps, XviD build 50 ~1575 kbps avg, 0.30 bit/pixel
Аудио: 48 kHz, AC3 Dolby Digital, 3/2 (L,C,R,l,r) + LFE ch, ~384 kbps DUB
Аудио: 48 kHz, AC3 Dolby Digital, 3/2 (L,C,R,l,r) + LFE ch, ~384 kbps ENG
Аудио: 48 kHz, AC3 Dolby Digital, 3/2 (L,C,R,l,r) + LFE ch, ~384 kbps Гаврилов
Формат субтитров: softsub (SRT)

File: Prikazano unichtoghit.chopper887.avi
Title: Prikazano unichtoghit.chopper887
Author: chopper887
Genre: Action
Category: Movie
Filesize: 2239.48 Mb ( 2 348 261 376 bytes )
Play length: 02:12:44.498 (190957 frames)
Subtitles: eng, rus (SubRip format)
Video: 720x304 (2.37:1), 23.976 fps, XviD build 50 ~1575 kbps avg, 0.30 bit/pixel
Audio #1: 48 kHz, AC3 Dolby Digital, 3/2 (L,C,R,l,r) + LFE ch, ~384 kbps
Audio #2: 48 kHz, AC3 Dolby Digital, 3/2 (L,C,R,l,r) + LFE ch, ~384 kbps

General
Complete name : L:Prikazano unichtoghit.chopper887Prikazano unichtoghit.chopper887.avi
Format : AVI
Format/Info : Audio Video Interleave
File size : 2.19 GiB
Duration : 2h 12mn
Overall bit rate : 2 359 Kbps
Movie name : Prikazano unichtoghit.chopper887
Director : chopper887
Genre : Action
Writing application : VirtualDubMod 1.5.10.2 (build 2540/release)
Original source form/Name : Movie
Video
ID : 0
Format : MPEG-4 Visual
Format profile : AdvancedSimple@L5
Format settings, BVOP : Yes
Format settings, QPel : No
Format settings, GMC : No warppoints
Format settings, Matrix : Custom
Codec ID : XVID
Codec ID/Hint : XviD
Duration : 2h 12mn
Bit rate : 1 577 Kbps
Width : 720 pixels
Height : 304 pixels
Display aspect ratio : 2.35:1
Frame rate : 23.976 fps
Resolution : 24 bits
Colorimetry : 4:2:0
Scan type : Progressive
Bits/(Pixel*Frame) : 0.300
Stream size : 1.46 GiB (67%)
Writing library : XviD 1.2.1 (UTC 2008-12-04)

Audio #1
ID : 1
Format : AC-3
Format/Info : Audio Coding 3
Codec ID : 2000
Duration : 2h 12mn
Bit rate mode : Constant
Bit rate : 384 Kbps
Channel(s) : 6 channels
Channel positions : Front: L C R, Surround: L R, LFE
Sampling rate : 48.0 KHz
Stream size : 365 MiB (16%)
Alignment : Split accross interleaves
Interleave, duration : 42 ms (1.00 video frame)
Interleave, preload duration : 500 ms

Audio #2
ID : 2
Format : AC-3
Format/Info : Audio Coding 3
Codec ID : 2000
Duration : 2h 12mn
Bit rate mode : Constant
Bit rate : 384 Kbps
Channel(s) : 6 channels
Channel positions : Front: L C R, Surround: L R, LFE
Sampling rate : 48.0 KHz
Stream size : 365 MiB (16%)
Alignment : Split accross interleaves
Interleave, duration : 42 ms (1.00 video frame)
Interleave, preload duration : 500 ms



Скачать Приказано.уничтожить.Executive.Decision.(Стюарт.Бейрд).[1996.боевик.триллер.приключения.HDTVRip].torrent без регистрации
Золото ЗОЛОТАЯ РАЗДАЧА! СКАЧАННОЕ НЕ ЗАСЧИТЫВАЕТСЯ! Золото
Дата: Зарегистрирован   [ Тип: внутренний ] Как тут cкачать?
MAGNET ссылка
MAGNET ссылка


Скачать .torrent

12 KB

Статус: проверено DHT
Скачан: торрент - 160 раз, раздача полностью - 73 раз
Размер: 2,19 GB
Оценка:  - (Голосов: 0)
Поблагодарили: 0
Поделиться ссылкой на эту раздачу с друзьями:
В контактеFacebookОдноклассникиTwitterLivejournalМой МирLiveinternet
 

 
Показать сообщения:    


Вы не можете начинать темы
Вы не можете отвечать на сообщения
Вы не можете редактировать свои сообщения
Вы не можете удалять свои сообщения
Вы не можете голосовать в опросах
Вы не можете прикреплять файлы к сообщениям
Вы можете скачивать файлы