Loading...
Error

Скачать Беги, сyка, беги! / Run! Bitch Run! (Джозеф Гузман ) [2009, ужасы, триллер, DVDRip] торрент без регистрации

 
Статистика раздачи
Размер:  1,45 GB   |    Скачан:  163 раза
Сидов:  1  [  0 KB/s  ]  
 
Автор Сообщение

Moln!a

[] 

Беги, сyка, беги! / Run! Bitch Run! (2009) DVDRip

Страна: США
Жанр: ужасы, триллер
Год выпуска: 2009
Продолжительность: 01:26:04

Перевод: Любительский (одноголосый закадровый) [Voiz][по субтитрам Хихикающий доктор и mokum]
Cубтитры: русские - отдельно
Режиссер: Джозеф Гузман

В ролях: Кристина ДеРоса, Черил Лойн, Питер Тахо, Джонни Винчер, Джессика Элдер и др.

Описание: Эротический триллер о насилии и мести в лучших традициях хоррор эротик 70-х годов. А всё происходит где-то в глубинке Америки, где жизнь показана такая убогая, зачуханная, полная противоположность голливудским красотам. И вот там есть свой мирок одной андерграунд семейки, которые не весть чем занимаются, сидят на коксе, иногда могут кого-то грохнуть ни за просто так. Однажды в их дом постучали две сестренки-христианки, которые приехали в их поселок продавать библии. Не вовремя постучались. Здесь и начинается для них реальный кошмар. Ну представьте, вполне благопристойные девицы и попадают в такую клоаку. Одна из сестренок чудом выжила, за одну ночь повзрослела и стала другим человеком

Доп. информация:

СЭМПЛ

Фильм содержит элементы насилия и ненормативную лексику!

Качество видео: DVDRip (Исх. DVD5)
Формат видео: AVI

Видео: 720x400 (1.80:1), 25 fps, XviD build 50 ~2088 kbps avg, 0.29 bit/pixel
Аудио: 48 kHz, MPEG Layer 3, 2 ch, ~128.00 kbps avg RUS
Аудио: 48 kHz, AC3 Dolby Digital, 2/0 (L,R) ch, ~192 kbps ENG
Формат субтитров: softsub (SRT)

File: Begi!Suka!Begi!.chopper887+Hihidok.avi
Title: Begi!Suka!Begi!.chopper887+Hihidok
Author: chopper887+Hihidok
Copyleft:
Genre: Horror/Thriller
Category: Movie
Filesize: 1489.35 Mb ( 1 561 700 352 bytes )
Play length: 01:25:55.200 (128880 frames)
Subtitles: Present (SubRip format)
Video: 720x400 (1.80:1), 25 fps, XviD build 50 ~2088 kbps avg, 0.29 bit/pixel
Audio #1: 48 kHz, MPEG Layer 3, 2 ch, ~128.00 kbps avg
Audio #2: 48 kHz, AC3 Dolby Digital, 2/0 (L,R) ch, ~192 kbps

General
Complete name : L:Begi!Suka!Begi!.chopper887+HihidokBegi!Suka!Begi!.chopper887+Hihidok.avi
Format : AVI
Format/Info : Audio Video Interleave
File size : 1.45 GiB
Duration : 1h 25mn
Overall bit rate : 2 423 Kbps
Movie name : Begi!Suka!Begi!.chopper887+Hihidok
Director : chopper887+Hihidok
Genre : Horror/Thriller
Writing application : VirtualDubMod 1.5.10.2 (build 2540/release)
Original source form/Name : Movie
Copyright :

Video
ID : 0
Format : MPEG-4 Visual
Format profile : AdvancedSimple@L5
Format settings, BVOP : Yes
Format settings, QPel : No
Format settings, GMC : No warppoints
Format settings, Matrix : Custom
Codec ID : XVID
Codec ID/Hint : XviD
Duration : 1h 25mn
Bit rate : 2 089 Kbps
Width : 720 pixels
Height : 400 pixels
Display aspect ratio : 16:9
Frame rate : 25.000 fps
Resolution : 24 bits
Colorimetry : 4:2:0
Scan type : Progressive
Bits/(Pixel*Frame) : 0.290
Stream size : 1.25 GiB (86%)
Writing library : XviD 1.2.1 (UTC 2008-12-04)

Audio #1
ID : 1
Format : MPEG Audio
Format version : Version 1
Format profile : Layer 3
Format_Settings_Mode : Joint stereo
Codec ID : 55
Codec ID/Hint : MP3
Duration : 1h 25mn
Bit rate mode : Constant
Bit rate : 128 Kbps
Channel(s) : 2 channels
Sampling rate : 48.0 KHz
Resolution : 16 bits
Stream size : 78.7 MiB (5%)
Alignment : Aligned on interleaves
Interleave, duration : 40 ms (1.00 video frame)
Interleave, preload duration : 504 ms

Audio #2
ID : 2
Format : AC-3
Format/Info : Audio Coding 3
Codec ID : 2000
Duration : 1h 25mn
Bit rate mode : Constant
Bit rate : 192 Kbps
Channel(s) : 2 channels
Channel positions : L R
Sampling rate : 48.0 KHz
Stream size : 118 MiB (8%)
Alignment : Split accross interleaves
Interleave, duration : 40 ms (1.00 video frame)
Interleave, preload duration : 500 ms



Скачать Беги.сyка.беги!.Run!.Bitch.Run!.(Джозеф.Гузман.).[2009.ужасы.триллер.DVDRip].torrent без регистрации
Золото ЗОЛОТАЯ РАЗДАЧА! СКАЧАННОЕ НЕ ЗАСЧИТЫВАЕТСЯ! Золото
Дата: Зарегистрирован   [ Тип: внутренний ] Как тут cкачать?
MAGNET ссылка
MAGNET ссылка


Скачать .torrent

15 KB

Статус: проверено DHT
Скачан: торрент - 163 раз, раздача полностью - 419 раз
Размер: 1,45 GB
Оценка:  5 (Голосов: 1)
Поблагодарили: 3
Поделиться ссылкой на эту раздачу с друзьями:
В контактеFacebookОдноклассникиTwitterLivejournalМой МирLiveinternet
 

 
Показать сообщения:    


Вы не можете начинать темы
Вы не можете отвечать на сообщения
Вы не можете редактировать свои сообщения
Вы не можете удалять свои сообщения
Вы не можете голосовать в опросах
Вы не можете прикреплять файлы к сообщениям
Вы можете скачивать файлы