Loading...
Error

Скачать Роковая тайна / Balancing the Books / Fatal Secrets (Мэйр Шэрони) [2009, США, триллер, драма, DVDRip] торрент без регистрации

 
Статистика раздачи
Размер:  1,28 GB   |    Скачан:  160 раз
Сидов:  1  [  0 KB/s  ]  
 
Автор Сообщение

Moln!a

[] 

Роковая тайна / Balancing the Books / Fatal Secrets


Страна: США
Жанр: триллер, драма
Год выпуска: 2009
Продолжительность: 01:27:33
Перевод: Профессиональный (многоголосый закадровый) [НТВ+]
Cубтитры: нет
Режиссер: Мэйр Шэрони
В ролях: Дина Мейер, Винсент Спано, Лиа Томпсон, Лила Рошон, Эд Бегли мл., Эрни Хадсон, Тесс Харпер, Робина Олстон, Эрик Од, Брент Баттлс
Описание: Джулия, разведенная писательница, знакомится с симпатичным молодым человеком по имени Скотт и принимает его предложение вместе поужинать. Тем же вечером мужчина насилует ее. Женщина решает во что бы то ни стало наказать мерзавца, однако его досье идеально за исключением одного: за последние три года о мужчине вообще нет никакой информации. Вместе с тем в интернете Джулии попадается на глаза статья об исчезновении из Далласа три года назад священника Уильяма Уилкинса, которого обвинили в хищении крупной суммы из фонда пожертвований и изнасиловании прихожанки…
Kinopoisk.ru:

Рейтинг R - Детям до 17 лет обязательно присутствие родителей


Качество видео: DVDRip
Формат видео: AVI

Видео: 720x400 (1.80:1), 23.976 fps, XviD build 63 ~1893 kbps avg, 0.27 bit/pixel
Аудио: 44.1 kHz, AC3 Dolby Digital, 2/0 (L,R) ch, ~192 kbps

General
Complete name : D:\Скачки с торенса (2)\Мои раздачи\Роковая тайна Balancing the Books (2009)\Rokovaja.tajna.2009.P.DVDRip.avi
Format : AVI
Format/Info : Audio Video Interleave
File size : 1.28 GiB
Duration : 1h 27mn
Overall bit rate : 2 095 Kbps
Writing application : VirtualDubMod 1.5.10.3 | www.virtualdub-fr.org || (build 2550/release)
Writing library : VirtualDubMod build 2550/release

Video
ID : 0
Format : MPEG-4 Visual
Format profile : Advanced Simple@L5
Format settings, BVOP : Yes
Format settings, QPel : Yes
Format settings, GMC : No warppoints
Format settings, Matrix : Default (MPEG)
Codec ID : XVID
Codec ID/Hint : XviD
Duration : 1h 27mn
Bit rate : 1 894 Kbps
Width : 720 pixels
Height : 400 pixels
Display aspect ratio : 16:9
Frame rate : 23.976 fps
Color space : YUV
Chroma subsampling : 4:2:0
Bit depth : 8 bits
Scan type : Progressive
Compression mode : Lossy
Bits/(Pixel*Frame) : 0.274
Stream size : 1.16 GiB (90%)
Writing library : XviD 63

Audio
ID : 1
Format : AC-3
Format/Info : Audio Coding 3
Mode extension : CM (complete main)
Codec ID : 2000
Duration : 1h 27mn
Bit rate mode : Constant
Bit rate : 192 Kbps
Channel(s) : 2 channels
Channel positions : Front: L R
Sampling rate : 44.1 KHz
Bit depth : 16 bits
Compression mode : Lossy
Stream size : 120 MiB (9%)
Alignment : Split accross interleaves
Interleave, duration : 42 ms (1.00 video frame)
Interleave, preload duration : 500 ms



Скачать Роковая.тайна.Balancing.the.Books.Fatal.Secrets.(Мэйр.Шэрони).[2009.США.триллер.драма.DVDRip].torrent без регистрации
Золото ЗОЛОТАЯ РАЗДАЧА! СКАЧАННОЕ НЕ ЗАСЧИТЫВАЕТСЯ! Золото
Дата: Зарегистрирован   [ Тип: внутренний ] Как тут cкачать?
MAGNET ссылка
MAGNET ссылка


Скачать .torrent

13 KB

Статус: проверено DHT
Скачан: торрент - 160 раз, раздача полностью - 92 раз
Размер: 1,28 GB
Оценка:  - (Голосов: 0)
Поблагодарили: 0
Поделиться ссылкой на эту раздачу с друзьями:
В контактеFacebookОдноклассникиTwitterLivejournalМой МирLiveinternet
 

 
Показать сообщения:    


Вы не можете начинать темы
Вы не можете отвечать на сообщения
Вы не можете редактировать свои сообщения
Вы не можете удалять свои сообщения
Вы не можете голосовать в опросах
Вы не можете прикреплять файлы к сообщениям
Вы можете скачивать файлы