Loading...
Error

Скачать Творцы страха / Fearmakers (Тимо Розе / Timo Rose) [2008, ужасы, мистика, DVDRip] торрент без регистрации

 
Статистика раздачи
Размер:  824 MB   |    Скачан:  118 раз
Сидов:  1  [  0 KB/s  ]  
 
Автор Сообщение

МихаНЕзатор

[] 

Творцы страха / Fearmakers

Страна: Германия
Жанр: Ужасы, мистика
Год выпуска: 2008
Продолжительность: 1:17:14

Перевод: Любительский (одноголосый закадровый)
Доп.инфо о переводе: Автор перевода - Миллиган, озвучил - mekong_delta.
Cубтитры: нет
Режиссер: Тимо Розе / Timo Rose

В ролях: Дэби Рокон, Тимо Розе, Джо Дэвисон, Андре Рэйссиг, Андреас Папе, Томас Керцмар т др.

Описание: Двое зкадычных друзей, исследователей паранормальных явлений берутся за не простое дело. Им предстоит раскрыть таинственное убийство сестры главной героини (которая их и наняла по совместительству). Тем самым временем, виновные в убийстве начинают умирать при загадочных обстоятельствах...

Доп. информация: Специально для ценителей Розе (раздел Грайндхаус)!
Сэмпл

Качество видео: DVDRip
Формат видео: AVI

Видео: DivX 5, 640х288, 4:3, 1491 Kbps, 24.000 fps
Аудио: 48.0 KHz, MPEG Audio, 2/0 (L,R) ch, 192 Kbps

General
Complete name : E:\Horror IMDb\Timo Rose\Fearmakers (2008 T. Rose IMDb 2.1)\Fearmakers (2008 T. Rose IMDb 2.1); (RUS).avi
Format : DivX
Format/Info : Hack of AVI
File size : 824 MiB
Duration : 1h 17mn
Overall bit rate : 1 491 Kbps

Video
ID : 0
Format : MPEG-4 Visual
Format settings, BVOP : No
Format settings, QPel : No
Format settings, GMC : No warppoints
Format settings, Matrix : Default (H.263)
Codec ID : DX50
Codec ID/Hint : DivX 5
Duration : 1h 17mn
Bit rate : 1 290 Kbps
Width : 640 pixels
Height : 288 pixels
Display aspect ratio : 2.222
Frame rate : 24.000 fps
Color space : YUV
Chroma subsampling : 4:2:0
Bit depth : 8 bits
Scan type : Progressive
Bits/(Pixel*Frame) : 0.292
Stream size : 713 MiB (86%)
Title : Video
Writing library : DivX 6.6.1.4

Audio
ID : 1
Format : MPEG Audio
Format version : Version 1
Format profile : Layer 3
Mode : Joint stereo
Mode extension : MS Stereo
Codec ID : 55
Codec ID/Hint : MP3
Duration : 1h 17mn
Bit rate mode : Constant
Bit rate : 192 Kbps
Channel(s) : 2 channels
Sampling rate : 48.0 KHz
Bit depth : 16 bits
Stream size : 106 MiB (13%)
Alignment : Split accross interleaves
Interleave, duration : 42 ms (1.00 video frame)
Interleave, preload duration : 500 ms
Title : Audio
Writing library : LAME3.96



Скачать Творцы.страха.Fearmakers.(Тимо.Розе.Timo.Rose).[2008.ужасы.мистика.DVDRip].torrent без регистрации
Золото ЗОЛОТАЯ РАЗДАЧА! СКАЧАННОЕ НЕ ЗАСЧИТЫВАЕТСЯ! Золото
Дата: Зарегистрирован   [ Тип: внутренний ] Как тут cкачать?
MAGNET ссылка
MAGNET ссылка


Скачать .torrent

17 KB

Статус: проверено DHT
Скачан: торрент - 118 раз, раздача полностью - 8 раз
Размер: 824 MB
Оценка:  - (Голосов: 0)
Поблагодарили: 0
Поделиться ссылкой на эту раздачу с друзьями:
В контактеFacebookОдноклассникиTwitterLivejournalМой МирLiveinternet
 

 
Показать сообщения:    


Вы не можете начинать темы
Вы не можете отвечать на сообщения
Вы не можете редактировать свои сообщения
Вы не можете удалять свои сообщения
Вы не можете голосовать в опросах
Вы не можете прикреплять файлы к сообщениям
Вы можете скачивать файлы