Loading...
Error

Скачать Риз: Падение Королевства / Riese: Kingdom Falling (сезон 1, серии 1-10 из 10) (Калина Кифф, Николас Хемфрис) [2010, фантастика, фэнтези, стимпанк, TVRip] [rus sub] торрент без регистрации

 
Статистика раздачи
Размер:  952 MB   |    Скачан:  179 раз
Сидов:  1  [  0 KB/s  ]  
 
Автор Сообщение

МихаНЕзатор

[] 

Риз: Падение Королевства / Riese: Kingdom Falling

Год выпуска: 2010
Страна: Канада
Жанр: Фантастика, фэнтези, стимпанк
Продолжительность: ~ 00:10
Перевод: отсутствует
Русские субтитры: есть
Субтитры: русские (Karebinga)

Режиссёр: Калина Кифф, Николас Хемфрис

В ролях: Christine Chatelain, Sharon Taylor, Ben Cotton, Allison Mack, Ryan Robbins, Patrick Gilmore, Alessandro Juliani, Emilie Ullerup.

Описание: Риз - мир, наполненный сомнительной моралью и политическими интригами. Преданность здесь - пустое слово, люди подозрительны. Однако, так было не всегда. Все началось с мирного государства Элизия. Оно процветало под правлением императрицы Кары и императора Уилрика, пока государственный переворот, устроенный Сектой, не изменил ход истории. На престол взошла Амара, кузина императрицы Кары. Она сразу же стала использовать силы и богатства Элизии для колонизации мира. Но даже, несмотря на все ее могущество, зловещая, загадочная, религиозная группа имела над ней власть. Назвавшись Сектой, они объявили себя официальной религией Элизии и стали увеличивать свое влияние по мере расширения границ государства.
После переворота земля начала отмирать, ресурсы истощаться, в сердцах людей оставалось все меньше сострадания. Начали проявляться самые темные стороны человечества.
Но есть еще надежда. Таинственная путница в сопровождении волка странствует по опустошенным землям. Преследуемые Сектой за ересь, они любой ценой уходят от захвата, в пути помогая нуждающимся. Риз должна убежать, найти связь ее прошлого и ее судьбы, принести мир в умирающие земли.
И некогда мирная Элизия станет полем сражения.

Доп. информация: Ранее сериал выходил под названием Riese, но показ был остановлен, обновленные серии и продолжение вышли на канале SyFy под названием Riese: Kingdom Falling.

Качество: TVRip
Формат: AVI
Видео кодек: XviD
Аудио кодек: MP3
Видео: XVID, 640x480 (4:3), 25.000 fps, 1317 Kbps, 0.171 Bits/Pixel
Аудио: MP3, 44100 Hz, 2 ch, 192 Kbps


01х01 Hunt
01х02 Bind
01х03 Fragments
01х04 Spares
01х05 Dawn
01х06 Prey
01х07 Beast
01х08 Indoctrination
01х09 Retribution
01х10 Reunion

General
Complete name : H:\Riese Kingdom Falling\Riese Kingdom Falling.Webisode.S01E01.The Hunt.Redone.avi
Format : AVI
Format/Info : Audio Video Interleave
File size : 106 MiB
Duration : 9mn 44s
Overall bit rate : 1 516 Kbps

Video
ID : 0
Format : MPEG-4 Visual
Format profile : Advanced Simple@L5
Format settings, BVOP : No
Format settings, QPel : No
Format settings, GMC : No warppoints
Format settings, Matrix : Default (MPEG)
Codec ID : XVID
Codec ID/Hint : XviD
Duration : 9mn 44s
Bit rate : 1 317 Kbps
Width : 640 pixels
Height : 480 pixels
Display aspect ratio : 4:3
Frame rate : 25.000 fps
Resolution : 8 bits
Colorimetry : 4:2:0
Scan type : Progressive
Bits/(Pixel*Frame) : 0.171
Stream size : 91.8 MiB (87%)
Writing library : XviD 1.1.2 (UTC 2006-11-01)

Audio
ID : 1
Format : MPEG Audio
Format version : Version 1
Format profile : Layer 3
Codec ID : 55
Codec ID/Hint : MP3
Duration : 9mn 44s
Bit rate mode : Constant
Bit rate : 192 Kbps
Channel(s) : 2 channels
Sampling rate : 44.1 KHz
Stream size : 13.4 MiB (13%)
Alignment : Split accross interleaves
Interleave, duration : 80 ms (2.00 video frames)



Скачать Риз.Падение.Королевства.Riese.Kingdom.Falling.(сезон.1.серии.1-10.из.10).(Калина.Кифф.Николас.Хемфрис).[2010.фантастика.фэнтези.стимпанк.TVRip].[rus.sub].torrent без регистрации
Золото ЗОЛОТАЯ РАЗДАЧА! СКАЧАННОЕ НЕ ЗАСЧИТЫВАЕТСЯ! Золото
Дата: Зарегистрирован   [ Тип: внутренний ] Как тут cкачать?
MAGNET ссылка
MAGNET ссылка


Скачать .torrent

21 KB

Статус: проверено DHT
Скачан: торрент - 179 раз, раздача полностью - 51 раз
Размер: 952 MB
Оценка:  5 (Голосов: 1)
Поблагодарили: 0
Поделиться ссылкой на эту раздачу с друзьями:
В контактеFacebookОдноклассникиTwitterLivejournalМой МирLiveinternet
 

 
Показать сообщения:    


Вы не можете начинать темы
Вы не можете отвечать на сообщения
Вы не можете редактировать свои сообщения
Вы не можете удалять свои сообщения
Вы не можете голосовать в опросах
Вы не можете прикреплять файлы к сообщениям
Вы можете скачивать файлы