Loading...
Error

Скачать Риз / Riese (сезон 1, серии 1-10) (Калина Кифф, Николас Хемфрис) [2009-2010 г., фантастика, боевик, фэнтези, приключения, WEBRip] торрент без регистрации

 
Статистика раздачи
Размер:  992 MB   |    Скачан:  177 раз

Полного источника не было: 29 минут

 
Автор Сообщение

МихаНЕзатор

[] 

Риз / Riese


Год выпуска: 2009-2010

Страна: Канада
Жанр: фантастика, боевик, фэнтези, приключения
Продолжительность: ~ 00:10:00
Перевод: Любительский (многоголосый, закадровый) Fantasy's Group
Режиссер: Калина Кифф, Николас Хемфрис
В ролях:
Кристин Шателейн, Патрик Гилмор, Шарон Тейлор, Бен Коттон, Барт Андерсон, Ричард Хэрмон, Райан Грэнтхем, Эллисон Мэк, Райан Роббинс, Shauna Johannesen и др.

Описание:
Риз - мир, наполненный сомнительной моралью и политическими интригами. Преданность здесь - пустое слово, люди подозрительны. Однако, так было не всегда. Все началось с мирного государства Элизия. Оно процветало под правлением императрицы Кары и императора Уилрика, пока государственный переворот, устроенный Сектой, не изменил ход истории. На престол взошла Амара, кузина императрицы Кары. Она сразу же стала использовать силы и богатства Элизии для колонизации мира. Но даже, несмотря на все ее могущество, зловещая, загадочная, религиозная группа имела над ней власть. Назвавшись Сектой, они объявили себя официальной религией Элизии и стали увеличивать свое влияние по мере расширения границ государства.
После переворота земля начала отмирать, ресурсы истощаться, в сердцах людей оставалось все меньше сострадания. Начали проявляться самые темные стороны человечества.
Но есть еще надежда. Таинственная путница в сопровождении волка странствует по опустошенным землям. Преследуемые Сектой за ересь, они любой ценой уходят от захвата, в пути помогая нуждающимся. Риз должна убежать, найти связь ее прошлого и ее судьбы, принести мир в умирающие земли.
И некогда мирная Элизия станет полем сражения.

Качество: WEBRip
Формат: AVI
Видео кодек: XviD
Аудио кодек: AC3
Видео: 720*400 (1.80), 23.976 fps, XviD MPEG-4, ~1337 kbps, 0.20 bit/pixel
Аудио: 48 kHz, AC3 Dolby Digital, 2 ch, ~192 kbps / Fantasy's Group /
Релиз:

| Сэмпл | IMDb КиноПоиск


Hunt
Bind
Fragments
Spares
Dawn
Prey
Beast
Indoctrination
Retribution
Reunion

General
Complete name : E:\Riese.s01e01.[Fantasy's.Group].rus.avi
Format : AVI
Format/Info : Audio Video Interleave
File size : 102 MiB
Duration : 9mn 13s
Overall bit rate : 1 541 Kbps
Writing application : VirtualDubMod 1.5.10.2 (build 2540/release)
Writing library : VirtualDubMod build 2540/release

Video
ID : 0
Format : MPEG-4 Visual
Format profile : Advanced Simple@L5
Format settings, BVOP : Yes
Format settings, QPel : No
Format settings, GMC : No warppoints
Format settings, Matrix : Default (MPEG)
Muxing mode : Packed bitstream
Codec ID : XVID
Codec ID/Hint : XviD
Duration : 9mn 13s
Bit rate : 1 340 Kbps
Width : 720 pixels
Height : 400 pixels
Display aspect ratio : 16:9
Frame rate : 23.976 fps
Resolution : 8 bits
Colorimetry : 4:2:0
Scan type : Progressive
Bits/(Pixel*Frame) : 0.194
Stream size : 88.3 MiB (87%)
Writing library : XviD 1.2.1 (UTC 2008-12-04)

Audio
ID : 1
Format : AC-3
Format/Info : Audio Coding 3
Codec ID : 2000
Duration : 9mn 13s
Bit rate mode : Constant
Bit rate : 192 Kbps
Channel(s) : 2 channels
Channel positions : L R
Sampling rate : 48.0 KHz
Stream size : 12.7 MiB (12%)
Alignment : Split accross interleaves
Interleave, duration : 42 ms (1.00 video frame)
Interleave, preload duration : 500 ms






Скачать Риз.Riese.(сезон.1.серии.1-10).(Калина.Кифф.Николас.Хемфрис).[2009-2010.г.фантастика.боевик.фэнтези.приключения.WEBRip].torrent без регистрации
Золото ЗОЛОТАЯ РАЗДАЧА! СКАЧАННОЕ НЕ ЗАСЧИТЫВАЕТСЯ! Золото
Дата: Зарегистрирован   [ Тип: внутренний ] Как тут cкачать?
MAGNET ссылка
MAGNET ссылка


Скачать .torrent

21 KB

Статус: проверено DHT
Скачан: торрент - 177 раз, раздача полностью - 78 раз
Размер: 992 MB
Оценка:  4,5 (Голосов: 2)
Поблагодарили: 3
Поделиться ссылкой на эту раздачу с друзьями:
В контактеFacebookОдноклассникиTwitterLivejournalМой МирLiveinternet
 

 
Показать сообщения:    


Вы не можете начинать темы
Вы не можете отвечать на сообщения
Вы не можете редактировать свои сообщения
Вы не можете удалять свои сообщения
Вы не можете голосовать в опросах
Вы не можете прикреплять файлы к сообщениям
Вы можете скачивать файлы