Loading...
Error

Скачать Больше, чем игра / More Than A Game [2008 г., баскетбол, DVDRip] торрент без регистрации

 
Статистика раздачи
Размер:  1,36 GB   |    Скачан:  10619 раз
Сидов:  1  [  0 KB/s  ]  
 
Автор Сообщение

МихаНЕзатор

[] 

More Than A Game / Больше, чем игра

Год выпуска: 2008
Вид спорта: Баскетбол
Продолжительность: 01:39:00
Перевод: Профессиональный (многоголосый, закадровый)
Описание: История игрока NBA Леброна Джеймса и четверых его товарищей по команде. Их путь от средней школы в Огайо до статуса суперзвёзд, игроков в премьер-лиге. Честный рассказ об испытаниях и сложностях профессиональной игры в баскетбол.
Качество: DVDRip
Формат: AVI
Видео кодек: XviD
Аудио кодек: AC3
Видео: 1 770 Kbps, 720x400 (16:9), 25.000 fps, MPEG-4 Visual (XviD)
Аудио: 192 Kbps, 48,0 KHz, 2 channels, Audio Coding 3 (ac3)
Режиссер: Кристофер Белман / Kristopher Belman
Сценарий: Кристофер Белман / Kristopher Belman, Брэд Хоган / Brad Hogan
Продюсер: Скотт Болкерек / Scott Balcerek, Кристофер Белман / Kristopher Belman, Маверик Картер / Maverick Carter, Stephanie DeNatale, Джимми Айовин / Jimmy Iovine
Оператор: Кристофер Белман / Kristopher Belman, Джонни Чинг / Johnny Ching, Трэвис Кук / Travis Cook, Dabling Harward, Брайан Джо / Brian Joe
Композитор: Харви Мэйсон мл. / Harvey Mason Jr.
В ролях: Леброн Джеймс (играет самого себя), Дрю Джойс (играет самого себя), Ромео Трэвис (играет самого себя), Сиан Коттон (играет самого себя), Уилли МакГи (играет самого себя)
Сборы в США: $950 675
Сборы в мире: $960 387
Мировая премьера: 6 сентября 2008

MPAA: - Рекомендуется присутствие родителей

General
Format : AVI
Format/Info : Audio Video Interleave
File size : 1.36 GiB
Duration : 1h 39mn
Overall bit rate : 1 972 Kbps
Writing application : VirtualDubMod 1.5.10.2 (build 2540/release)
Writing library : VirtualDubMod build 2540/release

Video
ID : 0
Format : MPEG-4 Visual
Format profile : Advanced Simple@L5
Format settings, BVOP : 2
Format settings, QPel : No
Format settings, GMC : No warppoints
Format settings, Matrix : Default (H.263)
Muxing mode : Packed bitstream
Codec ID : XVID
Codec ID/Hint : XviD
Duration : 1h 39mn
Bit rate : 1 770 Kbps
Width : 720 pixels
Height : 400 pixels
Display aspect ratio : 16:9
Frame rate : 25.000 fps
Color space : YUV
Chroma subsampling : 4:2:0
Bit depth : 8 bits
Scan type : Progressive
Compression mode : Lossy
Bits/(Pixel*Frame) : 0.246
Stream size : 1.22 GiB (90%)
Writing library : XviD 63

Audio
ID : 1
Format : AC-3
Format/Info : Audio Coding 3
Mode extension : CM (complete main)
Codec ID : 2000
Duration : 1h 39mn
Bit rate mode : Constant
Bit rate : 192 Kbps
Channel(s) : 2 channels
Channel positions : Front: L R
Sampling rate : 48.0 KHz
Bit depth : 16 bits
Compression mode : Lossy
Stream size : 136 MiB (10%)
Alignment : Split accross interleaves
Interleave, duration : 40 ms (1.00 video frame)
Interleave, preload duration : 500 ms





Скачать Больше.чем.игра.More.Than.A.Game.[2008.г.баскетбол.DVDRip].torrent без регистрации
Золото ЗОЛОТАЯ РАЗДАЧА! СКАЧАННОЕ НЕ ЗАСЧИТЫВАЕТСЯ! Золото
Дата: Зарегистрирован   [ Тип: внутренний ] Как тут cкачать?
MAGNET ссылка
MAGNET ссылка


Скачать .torrent

14 KB

Статус: проверено DHT
Скачан: торрент - 10619 раз, раздача полностью - 162 раз
Размер: 1,36 GB
Оценка:  5 (Голосов: 1)
Поблагодарили: 0
Поделиться ссылкой на эту раздачу с друзьями:
В контактеFacebookОдноклассникиTwitterLivejournalМой МирLiveinternet
 

 
Показать сообщения:    


Вы не можете начинать темы
Вы не можете отвечать на сообщения
Вы не можете редактировать свои сообщения
Вы не можете удалять свои сообщения
Вы не можете голосовать в опросах
Вы не можете прикреплять файлы к сообщениям
Вы можете скачивать файлы