Loading...
Error

Скачать Хитмэн / Sat sau ji wong (Вэй Тунг) [1998, боевик, комедия, BDRip-AVC] [Расширенная (азиатская) версия] торрент без регистрации

 
Статистика раздачи
Размер:  2,65 GB   |    Скачан:  169 раз
Сидов:  1  [  0 KB/s  ]  
 
Автор Сообщение

МихаНЕзатор

[] 

Название: Хитмэн
Оригинальное название: Sat sau ji wong
Год выпуска: 1998
Жанр: Боевик, комедия
Выпущено: Гонконг, China Star Entertainment
Режиссер: Вэй Тунг
В ролях: Джет Ли, Эрик Цан, Саймон Ям, Гиги Люн, Кейджи Сато, Пауль Раповски, Квонг Ким Йип, Хидери Майкен, Тимми Хо, Чи Хунг ЭнДжи, Джон Чинг, Кенджи Сахара, Мика Каванабе, Токашики Митсуру



О фильме: В Гонг Конге объявился «Король убийц» наемный убийца, который работает не из-за денег, и убирает только опасных преступников. Его очередной жертвой становится престарелый главарь якудза, совершенно отвратительный тип, который во время войны издевался над китайскими девушками. Проблема в том, что незадолго до смерти японец основал специальный фонд, 100 миллн. американских долларов из которого получит тот, кто отомстит убийце. Чтобы получить деньги в Гонг Конг слетаются «киллеры» со всего света, среди них оказался молодой парень по имени Фэй. Его привел агент-мошенник Нгок Ло, собирающийся чужими руками заработать большие деньги...

Дополнительно: русский перевод взят из европейского DVD и наложен на центр китайской (mandarin) дороги. Так как на европейском DVD перевод наложен на английский дубляж, а не на китайский в результате получился микс с русским переводом наложеннным на английскую речь, но со вставками из китайской речи на "расширенных" местах. К тому же музыкальное сопровождение в фильме координально отличается от европейской версии.

Качество: BDRip (AVC)
Видео: MPEG-4 AVC, 3005 Кбит/с, 1024x544
Аудио: AC3, 6 ch, 448 Кбит/с
Размер: 2.65 ГБ
Продолжительность: 01:44:17
Перевод: Профессиональный (двухголосый закадровый)

General
Complete name : D:VIRTUALDISK1119 - 1998Naemnyj.ubijca.1998.x264.BDRip(AVC).Olegov.mkv
Format : Matroska
File size : 2.65 GiB
Duration : 1h 44mn
Overall bit rate : 3 644 Kbps
Encoded date : UTC 2011-05-01 09:58:37
Writing application : mkvmerge v3.3.0 ('Language') built on Mar 24 2010 14:59:24
Writing library : libebml v0.8.0 + libmatroska v0.9.0

Video
ID : 1
Format : AVC
Format/Info : Advanced Video Codec
Format profile : High@L4.1
Format settings, CABAC : Yes
Format settings, ReFrames : 8 frames
Muxing mode : Container profile=Unknown@4.1
Codec ID : V_MPEG4/ISO/AVC
Duration : 1h 44mn
Bit rate : 2 931 Kbps
Nominal bit rate : 3 005 Kbps
Width : 1 024 pixels
Height : 544 pixels
Display aspect ratio : 1.882
Frame rate : 23.976 fps
Resolution : 24 bits
Colorimetry : 4:2:0
Scan type : Progressive
Bits/(Pixel*Frame) : 0.219
Stream size : 2.13 GiB (80%)
Writing library : x264 core 92 r1510 33d382a
Encoding settings : cabac=1 / ref=8 / deblock=1:-1:-1 / analyse=0x3:0x133 / me=umh / subme=10 / psy=1 / psy_rd=0.80:1.00 / mixed_ref=1 / me_range=48 / chroma_me=1 / trellis=2 / 8x8dct=1 / cqm=0 / deadzone=21,11 / fast_pskip=0 / chroma_qp_offset=1 / threads=3 / sliced_threads=0 / nr=0 / decimate=0 / interlaced=0 / constrained_intra=0 / bframes=6 / b_pyramid=2 / b_adapt=2 / b_bias=0 / direct=3 / wpredb=1 / wpredp=2 / keyint=250 / keyint_min=25 / scenecut=40 / intra_refresh=0 / rc_lookahead=40 / rc=2pass / mbtree=1 / bitrate=3005 / ratetol=1.0 / qcomp=0.60 / qpmin=10 / qpmax=51 / qpstep=4 / cplxblur=20.0 / qblur=0.5 / ip_ratio=1.40 / aq=2:1.00

Audio
ID : 2
Format : AC-3
Format/Info : Audio Coding 3
Codec ID : A_AC3
Duration : 1h 44mn
Bit rate mode : Constant
Bit rate : 640 Kbps
Channel(s) : 6 channels
Channel positions : Front: L C R, Surround: L R, LFE
Sampling rate : 48.0 KHz
Stream size : 477 MiB (18%)



Скачать Хитмэн.Sat.sau.ji.wong.(Вэй.Тунг).[1998.боевик.комедия.BDRip-AVC].[Расширенная.(азиатская).версия].torrent без регистрации
Золото ЗОЛОТАЯ РАЗДАЧА! СКАЧАННОЕ НЕ ЗАСЧИТЫВАЕТСЯ! Золото
Дата: Зарегистрирован   [ Тип: внутренний ] Как тут cкачать?
MAGNET ссылка
MAGNET ссылка


Скачать .torrent

14 KB

Статус: проверено DHT
Скачан: торрент - 169 раз, раздача полностью - 46 раз
Размер: 2,65 GB
Оценка:  5 (Голосов: 1)
Поблагодарили: 1
Поделиться ссылкой на эту раздачу с друзьями:
В контактеFacebookОдноклассникиTwitterLivejournalМой МирLiveinternet
 

 
Показать сообщения:    


Вы не можете начинать темы
Вы не можете отвечать на сообщения
Вы не можете редактировать свои сообщения
Вы не можете удалять свои сообщения
Вы не можете голосовать в опросах
Вы не можете прикреплять файлы к сообщениям
Вы можете скачивать файлы