Loading...
Error

Скачать Аттракцион (Виталий Воробьев) [2008, детектив, DVDRip] торрент без регистрации

 
Статистика раздачи
Размер:  1,46 GB   |    Скачан:  132 раза

Полного источника не было: 22 минуты

 
Автор Сообщение

МихаНЕзатор

[] 

Аттракцион


Жанр: детектив
Год выпуска: 2008
Продолжительность: 01:45:40

Режиссер: Виталий Воробьев

В ролях: Виталий Кищенко, Геннадий Хазанов, Анатолий Кот, Екатерина Никитина, Дмитрий Матвеев, Александр Никулин, Николай Коробов, Игорь Марычев, Евгений Крылов, Антон Алексеев...

Кинокомпания: Арт Пикчерс Груп ТВ

Описание: Бывшие сотрудники ФСБ организуют аттракцион, в котором инсценируется реальный захват самолета и освобождение заложников. Полковник Олег Соколов вынужден уволится из органов ФСБ вслед за своими товарищами. Объединившись со своими бывшими сослуживцами, он внедряется в окружение олигарха Осинского с целью разоблачения его преступной деятельности.




Контейнер: AVI
Обложка диска: http://multi-up.com/483288

Видео: 720x400 (16:9), 25.000 fps, XVID ~1584 kbps avg, 0.220 bit/pixel
Аудио: 48 kHz, AC3, 6 ch, 384.00 kbps Constant

Общее
Полное имя :Attrakzion.2008.O.DVDRip.avi
Формат : AVI
Формат/Информация : Audio Video Interleave
Размер файла : 1,46 Гбайт
Продолжительность : 1 ч. 45 м.
Общий поток : 1978 Кбит/сек
Программа кодирования : VirtualDubMod 1.5.10.3 (build 2550/release)
Библиотека кодирования : VirtualDubMod build 2550/release

Видео
Идентификатор : 0
Формат : MPEG-4 Visual
Профиль формата : Advanced Simple@L5
Параметр BVOP формата : 1
Параметр QPel формата : Нет
Параметр GMC формата : Без точки перехода
Параметр матрицы формата : Выборочная
Идентификатор кодека : XVID
Идентификатор кодека/Подсказка : XviD
Продолжительность : 1 ч. 45 м.
Битрейт : 1584 Кбит/сек
Ширина : 720 пикс.
Высота : 400 пикс.
Соотношение сторон : 16:9
Частота кадров : 25,000 кадр/сек
Цветовое пространство : YUV
Подвыборка цветности : 4:2:0
Битовая глубина : 8 бит
Тип развёртки : Прогрессивная
Метод сжатия : С потерями
Бит/(Пиксели*Кадры) : 0.220
Размер потока : 1,17 Гбайт (80%)
Библиотека кодирования : XviD 1.2.1 (UTC 2008-12-04)

Аудио
Идентификатор : 1
Формат : AC-3
Формат/Информация : Audio Coding 3
Расширение режима : CM (complete main)
Идентификатор кодека : 2000
Продолжительность : 1 ч. 45 м.
Вид битрейта : Постоянный
Битрейт : 384 Кбит/сек
Каналы : 6 каналов
Расположение каналов : Front: L C R, Side: L R, LFE
Частота : 48,0 КГц
Битовая глубина : 16 бит
Метод сжатия : С потерями
Размер потока : 290 Мбайт (19%)
Выравнивание : Разделение по промежуткам
Продолжительность промежутка : 40 мс. (1,00 видеокадр)
Время предзагрузки промежутка : 500 ms


Релиз от группы:






Скачать Аттракцион.(Виталий.Воробьев).[2008.детектив.DVDRip].torrent без регистрации
Золото ЗОЛОТАЯ РАЗДАЧА! СКАЧАННОЕ НЕ ЗАСЧИТЫВАЕТСЯ! Золото
Дата: Зарегистрирован   [ Тип: внутренний ] Как тут cкачать?
MAGNET ссылка
MAGNET ссылка


Скачать .torrent

30 KB

Статус: проверено DHT
Скачан: торрент - 132 раз, раздача полностью - 23 раз
Размер: 1,46 GB
Оценка:  5 (Голосов: 1)
Поблагодарили: 0
Поделиться ссылкой на эту раздачу с друзьями:
В контактеFacebookОдноклассникиTwitterLivejournalМой МирLiveinternet
 

 
Показать сообщения:    


Вы не можете начинать темы
Вы не можете отвечать на сообщения
Вы не можете редактировать свои сообщения
Вы не можете удалять свои сообщения
Вы не можете голосовать в опросах
Вы не можете прикреплять файлы к сообщениям
Вы можете скачивать файлы