Loading...
Error

Скачать Знаменитые и мёртвые / Os Famosos e os Duendes da Morte (Эсмир Фильо / Esmir Filho) [2009, драма, арт-хаус, DVDRip] торрент без регистрации

 
Статистика раздачи
Размер:  1,19 GB   |    Скачан:  121 раз
Сидов:  1  [  0 KB/s  ]  
 
Автор Сообщение

МихаНЕзатор

[] 

Знаменитые и мёртвые / Os Famosos e os Duendes da Morte

Страна: Франция, Бразилия
Жанр: Драма, Арт-хаус
Год выпуска: 2009
Продолжительность: 01:41:48

Перевод: Любительский (одноголосый закадровый) || Перевод: anubis; озвучка: Василий Кошкин.
Cубтитры: нет
Режиссер: Эсмир Фильо / Esmir Filho

В ролях: Исмаэль Канеппеле, Туане Эггерс, Энрике Ларре и др.

Описание: Маленький унылый городок, со своими радостями и печалями, где подростков, так же как и взрослых, терзает боль прошлого и туманность будущего. Где два закадычных друга проживают одну жизнь, так близко и так по-разному, где люди уходят от проблем просто прыгая с моста, искушая этим тех, кто погряз в трагичной любви.



Качество видео: DVDRip
Формат видео: AVI

Видео: XviD, 672x272, 2.471, 25.000 fps, 1 469 Kbps
Аудио: MP3, 44.1 KHz, 192 Kbps, 2 channels

General
Complete name : G:\На торрент\Os Famosos e os Duendes da Morte rus.avi
Format : AVI
Format/Info : Audio Video Interleave
File size : 1.19 GiB
Duration : 1h 41mn
Overall bit rate : 1 671 Kbps

Video
ID : 0
Format : MPEG-4 Visual
Format profile : Advanced Simple@L5
Format settings, BVOP : No
Format settings, QPel : No
Format settings, GMC : No warppoints
Format settings, Matrix : Default (MPEG)
Codec ID : XVID
Codec ID/Hint : XviD
Duration : 1h 41mn
Bit rate : 1 469 Kbps
Width : 672 pixels
Height : 272 pixels
Display aspect ratio : 2.471
Frame rate : 25.000 fps
Resolution : 8 bits
Colorimetry : 4:2:0
Scan type : Progressive
Bits/(Pixel*Frame) : 0.321
Stream size : 1.04 GiB (88%)
Writing library : XviD 1.2.1 (UTC 2008-12-04)

Audio
ID : 1
Format : MPEG Audio
Format version : Version 1
Format profile : Layer 3
Codec ID : 55
Codec ID/Hint : MP3
Duration : 1h 41mn
Bit rate mode : Constant
Bit rate : 192 Kbps
Channel(s) : 2 channels
Sampling rate : 44.1 KHz
Stream size : 140 MiB (11%)
Alignment : Split accross interleaves
Interleave, duration : 40 ms (1.01 video frame)
Writing library : LAMELAME_MAJOR_VERSI



Скачать Знаменитые.и.мёртвые.Os.Famosos.e.os.Duendes.da.Morte.(Эсмир.Фильо.Esmir.Filho).[2009.драма.арт-хаус.DVDRip].torrent без регистрации
Золото ЗОЛОТАЯ РАЗДАЧА! СКАЧАННОЕ НЕ ЗАСЧИТЫВАЕТСЯ! Золото
Дата: Зарегистрирован   [ Тип: внутренний ] Как тут cкачать?
MAGNET ссылка
MAGNET ссылка


Скачать .torrent

12 KB

Статус: проверено DHT
Скачан: торрент - 121 раз, раздача полностью - 7 раз
Размер: 1,19 GB
Оценка:  5 (Голосов: 2)
Поблагодарили: 2
Поделиться ссылкой на эту раздачу с друзьями:
В контактеFacebookОдноклассникиTwitterLivejournalМой МирLiveinternet
 

 
Показать сообщения:    


Вы не можете начинать темы
Вы не можете отвечать на сообщения
Вы не можете редактировать свои сообщения
Вы не можете удалять свои сообщения
Вы не можете голосовать в опросах
Вы не можете прикреплять файлы к сообщениям
Вы можете скачивать файлы