Loading...
Error

Скачать Доставить любой ценой (серии 1-4 из 4) (Александр Березань) [2011, военный фильм, DVB] торрент без регистрации

Статистика раздачи
Размер:  4,56 GB   |    Скачан:  348 раз
Сидов:  1  [  0 KB/s  ]  
 
 
 
Автор Сообщение

МихаНЕзатор

[] 

Доставить любой ценой

Год выпуска: 2011
Производство: «Film.ua» (Фильм Ю.Эй.)
Жанр: Военный фильм
Продолжительность: ~ 00:43:00 серия
Субтитры: Отсутствуют

Режиссёр: Александр Березань

В ролях: Евгения Брик (Хиривская), Дмитрий Орлов (III), Мирослав Белоногий, Александр Кобзарь, Виктория Малекторович, Сергей Калантай, Дирк Мартенс, Евгений Ермаков, Юрий Шульган, Михаил Жонин, Сергей Романюк, Владимир Левицкий, Дмитрий Суржиков, Алексей Арестович, Игорь Гнездилов, Римма Зюбина

Описание: В октябре 1941 советские люди еще верили, что война с немцами не продлится дольше нескольких месяцев. Тем не менее по приказу руководства в тыл перевозят не только заводы, но и исторические ценности. В небольшом городке эвакуируют музей, уютно разместившийся в старинном монастыре. Молодая девушка Ася, ее отец-профессор, да его заместитель Феденька — вот и вся охрана, на которую возложена миссия спасти для народа культурное достояние. Среди прочих экспонатов есть один особенный — он должен стать основой для выставки под патронатом самого товарища Сталина, но и у немцев на эту вещицу есть планы.
Путь неблизкий, а дорога полна опасностей. Случается так, что вместо родных людей сопровождать Асеньку станет совсем чужой человек, судьба которого полна неприятных загадок, а повадки и привычки заставляют скорее опасаться его, чем доверять… но одной ей не выжить.

Релиз:

СЭМПЛ

Качество: DVB
Формат: MPEG
Видео кодек: MPEG2
Аудио кодек: MPEG1 Layer 2
Видео: MPEG2 Video 720x576 (4:3) 25.00fps 3 550 Kbps, 0.342 bit/pixel
Аудио: MPEG Audio 48000Hz stereo 192 Кбит/сек

Complete name : G:\Доставить любой ценой_DVB_by_CLIPMAN\Доставить любой ценой.01_DVB_by_CLIPMAN.mpg
Format : MPEG-PS
File size : 1.16 GiB
Duration : 43mn 39s
Overall bit rate : 3 789 Kbps

Video
ID : 224 (0xE0)
Format : MPEG Video
Format version : Version 2
Format profile : Main@Main
Format settings, BVOP : Yes
Format settings, Matrix : Default
Duration : 43mn 39s
Bit rate mode : Constant
Bit rate : 3 550 Kbps
Width : 720 pixels
Height : 576 pixels
Display aspect ratio : 4:3
Frame rate : 25.000 fps
Standard : PAL
Color space : YUV
Chroma subsampling : 4:2:0
Bit depth : 8 bits
Scan type : Interlaced
Scan order : Top Field First
Bits/(Pixel*Frame) : 0.342
Stream size : 1.07 GiB (93%)

Audio
ID : 192 (0xC0)
Format : MPEG Audio
Format version : Version 1
Format profile : Layer 2
Duration : 43mn 39s
Bit rate mode : Constant
Bit rate : 192 Kbps
Channel(s) : 2 channels
Sampling rate : 48.0 KHz
Stream size : 60.0 MiB (5%)



Скачать Доставить.любой.ценой.(серии.1-4.из.4).(Александр.Березань).[2011.военный.фильм.DVB].torrent без регистрации
Золото ЗОЛОТАЯ РАЗДАЧА! СКАЧАННОЕ НЕ ЗАСЧИТЫВАЕТСЯ! Золото
Дата: Зарегистрирован   [ Тип: внутренний ] Как тут cкачать?
MAGNET ссылка
MAGNET ссылка


Скачать .torrent

24 KB

Статус: проверено DHT
Скачан: торрент - 348 раз, раздача полностью - 246 раз
Размер: 4,56 GB
Оценка:  5 (Голосов: 2)
Поблагодарили: 5
Поделиться ссылкой на эту раздачу с друзьями:
В контактеFacebookОдноклассникиTwitterLivejournalМой МирLiveinternet
 

 
Показать сообщения:    


Вы не можете начинать темы
Вы не можете отвечать на сообщения
Вы не можете редактировать свои сообщения
Вы не можете удалять свои сообщения
Вы не можете голосовать в опросах
Вы не можете прикреплять файлы к сообщениям
Вы можете скачивать файлы