Loading...
Error

Скачать Заложница / Taken (Пьер Морель) [2008, боевик, триллер, драма, криминал, HDRip-AVC] [DHT-Movies] торрент без регистрации

 
Статистика раздачи
Размер:  2,19 GB   |    Скачан:  214 раз

Полного источника не было: 29 минут

 
Автор Сообщение

МихаНЕзатор

[] 

Заложница / Taken (2008) HDRip-AVC
от DHT-Movies

Информация о фильме
Название: Заложница
Оригинальное название: Taken
Год выхода: 2008
Жанр: Боевик, триллер, драма, криминал
Режиссер: Пьер Морель
В ролях: Лиам Нисон, Мэгги Грэйс, Лиленд Орсер, Джон Гриз, Дэвид Уоршофски, Холли Вэлэнс, Кэти Кэссиди, Ксандер Беркли, Оливье Рабурден, Жерар Уоткинс

О фильме:
Семнадцатилетняя Ким, единственная радость своего отца Брайна Милса, отставного агента спецслужб ЦРУ, живет с матерью и обеспеченным отчимом. На каникулы Ким собралась поехать в Париж со своей подругой Амандой.
В аэропорту Парижа девушки знакомятся с Питером, который провожает их до дома и узнает, что девушки будут гостить совсем одни. Во время звонка отцу, Ким замечает как трое неизвестных ворвались в дом и схватили Аманду. У неё есть всего десять секунд, чтобы описать похитителей. Брайн незамедлительно отправляется в Париж на поиски дочери, у него есть всего 96 часов, ведь потом её уже не найти.


Страна: США, Франция, Великобритания
Студия: Europa Corp.
Продолжительность: 01:33:36
Перевод: Дублированный


Релиз от: | by ATi


Файл
Кодек: h.264
Качество: HDRip-AVC
Видео: h.264@L4.1, 1024x432 , 23.976 fps, ~2505 kbps avg, 0.236 bit/pixel.
Аудио 1: 48 kHz, AC3 Dolby Digital, 3/2 (L,C,R,l,r) + LFE ch, ~384.00 kbps avg | RUS
Аудио 2: 48 kHz, AC3 Dolby Digital, 3/2 (L,C,R,l,r) + LFE ch, ~384.00 kbps avg | ENG
Субтитры: Английские (в контейнере)

Сохранены Чаптеры как на Blu-Ray

General
Format : Matroska
File size : 2.19 GiB
Duration : 1h 33mn
Overall bit rate : 3 339 Kbps
Movie name : DHT-Movies
Writing application : mkvmerge v4.6.0 ('Still Crazy After All These Years') Ў‘ћ љђ ћў Apr 1 2011 21:01:49
Writing library : libebml v1.2.0 + libmatroska v1.1.0
Video #1
ID : 1
Format : AVC
Format/Info : Advanced Video Codec
Format profile : High@L4.1
Format settings, CABAC : Yes
Format settings, ReFrames : 7 frames
Muxing mode : Container profile=Unknown@4.1
Codec ID : V_MPEG4/ISO/AVC
Duration : 1h 33mn
Bit rate : 2 505 Kbps
Nominal bit rate : 2 572 Kbps
Width : 1 024 pixels
Height : 432 pixels
Display aspect ratio : 2.35:1
Frame rate : 24.000 fps
Resolution : 24 bits
Colorimetry : 4:2:0
Scan type : Progressive
Bits/(Pixel*Frame) : 0.236
Stream size : 1.64 GiB (75%)
Title : DHT-Movies
Writing library : x264 core 115 r1937 aa21558
Encoding settings : cabac=1 / ref=7 / deblock=1:-2:-2 / analyse=0x3:0x113 / me=umh / subme=9 / psy=1 / psy_rd=1.00:0.00 / mixed_ref=1 / me_range=32 / chroma_me=1 / trellis=2 / 8x8dct=1 / cqm=0 / deadzone=21,11 / fast_pskip=1 / chroma_qp_offset=-2 / threads=6 / sliced_threads=0 / nr=0 / decimate=1 / interlaced=0 / bluray_compat=0 / constrained_intra=0 / bframes=7 / b_pyramid=2 / b_adapt=2 / b_bias=0 / direct=1 / weightb=1 / open_gop=0 / weightp=2 / keyint=250 / keyint_min=24 / scenecut=40 / intra_refresh=0 / rc_lookahead=40 / rc=2pass / mbtree=1 / bitrate=2572 / ratetol=1.0 / qcomp=0.60 / qpmin=0 / qpmax=69 / qpstep=4 / cplxblur=20.0 / qblur=0.5 / ip_ratio=1.40 / aq=1:1.00
Audio #2
ID : 2
Format : AC-3
Format/Info : Audio Coding 3
Codec ID : A_AC3
Duration : 1h 33mn
Bit rate mode : Constant
Bit rate : 384 Kbps
Channel(s) : 6 channels
Channel positions : Front: L C R, Surround: L R, LFE
Sampling rate : 48.0 KHz
Stream size : 258 MiB (12%)
Title : AC3, 384 kbps
Language : Russian
Audio #3
ID : 3
Format : AC-3
Format/Info : Audio Coding 3
Codec ID : A_AC3
Duration : 1h 33mn
Bit rate mode : Constant
Bit rate : 384 Kbps
Channel(s) : 6 channels
Channel positions : Front: L C R, Surround: L R, LFE
Sampling rate : 48.0 KHz
Stream size : 258 MiB (12%)
Title : AC3, 384 kbps
Text #4
ID : 4
Format : UTF-8
Codec ID : S_TEXT/UTF8
Codec ID/Info : UTF-8 Plain Text
Title : English



Скачать Заложница.Taken.(Пьер.Морель).[2008.боевик.триллер.драма.криминал.HDRip-AVC].[DHT-Movies].torrent без регистрации
Золото ЗОЛОТАЯ РАЗДАЧА! СКАЧАННОЕ НЕ ЗАСЧИТЫВАЕТСЯ! Золото
Дата: Зарегистрирован   [ Тип: внутренний ] Как тут cкачать?
MAGNET ссылка
MAGNET ссылка


Скачать .torrent

11 KB

Статус: проверено DHT
Скачан: торрент - 214 раз, раздача полностью - 284 раз
Размер: 2,19 GB
Оценка:  5 (Голосов: 3)
Поблагодарили: 3
Поделиться ссылкой на эту раздачу с друзьями:
В контактеFacebookОдноклассникиTwitterLivejournalМой МирLiveinternet
 

 

leon030982

[] 

классное кино ay ay ay
 
Показать сообщения:    


Вы не можете начинать темы
Вы не можете отвечать на сообщения
Вы не можете редактировать свои сообщения
Вы не можете удалять свои сообщения
Вы не можете голосовать в опросах
Вы не можете прикреплять файлы к сообщениям
Вы можете скачивать файлы