Loading...
Error

Скачать Земля, забытая временем / Земля динозавров: Путешествие во времени / The Land that Time Forgot (С. Томас Хауэлл / C. Thomas Howell) [2009, фантастика, HDRip] торрент без регистрации

 
Статистика раздачи
Размер:  1,46 GB   |    Скачан:  243 раза
Сидов:  1  [  0 KB/s  ]  
 
Автор Сообщение

МихаНЕзатор

[] 

Земля, забытая временем / Земля динозавров: Путешествие во времени / The Land that Time Forgot

Страна: США. The Asylum
Жанр: B-Movie. фантастика
Год выпуска: 2009
Продолжительность: 01:28:05

Перевод: Профессиональный (двухголосый закадровый) R5
Cубтитры: нет
Оригинальная аудиодорожка: английский

Режиссер: С. Томас Хауэлл / C. Thomas Howell

В ролях: С. Томас Хауэлл, Тимоти Боттомс, Линдси МакКеон, Даррен Далтон, Стефен Блэкхарт, Кристофер Шоэрман, Патрик Горман, Скотт Субионо, Аня Бентон, Дэвид Стивенс

Описание: Две пары новобрачных наслаждаются чартерным круизом на яхте по Карибскому морю. Проходя через шторм, они таинственным образом появляются у берега таинственного острова Caprona. Этот остров, существует в пределах пустоты времени в Бермудском треугольнике. Остров полон анахронических жителей, включая динозавров и доисторических млекопитающих и команду немецкой подводной лодки U. Молодожёны вместе с капитаном лодки и немцами, должны бороться, чтобы покинуть остров и возвратиться в их собственному времени.

Качество видео: HDRip
Формат видео: AVI

Видео: 704x400 (1.76:1), 23.976 fps, 1969 kbps avg, 0.29 bit/pixel
Аудио: 48 kHz, MPEG Layer 3, 2 ch, 192.00 kbps avg
Аудио 2: 48 kHz, MPEG Layer 3, 2 ch, 192.00 kbps avg



спасибо Diablo за исходник
только в его раздаче 2 двухголосых перевода. многоголосых нету.

General
Complete name : Ы
Format : AVI
Format/Info : Audio Video Interleave
File size : 1.46 GiB
Duration : 1h 28mn
Overall bit rate : 2 369 Kbps
Writing application : VirtualDubModRus 1.5.10.2 (build 2540/release)
Writing library : VirtualDubMod build 2540/release

Video
ID : 0
Format : MPEG-4 Visual
Format profile : Advanced Simple@L5
Format settings, BVOP : Yes
Format settings, QPel : No
Format settings, GMC : No warppoints
Format settings, Matrix : Default (MPEG)
Codec ID : XVID
Codec ID/Hint : XviD
Duration : 1h 28mn
Bit rate : 1 971 Kbps
Width : 704 pixels
Height : 400 pixels
Display aspect ratio : 16:9
Frame rate : 23.976 fps
Resolution : 8 bits
Colorimetry : 4:2:0
Scan type : Progressive
Bits/(Pixel*Frame) : 0.292
Stream size : 1.21 GiB (83%)
Writing library : XviD 63

Audio #1
ID : 1
Format : MPEG Audio
Format version : Version 1
Format profile : Layer 3
Codec ID : 55
Codec ID/Hint : MP3
Duration : 1h 28mn
Bit rate mode : Constant
Bit rate : 192 Kbps
Channel(s) : 2 channels
Sampling rate : 48.0 KHz
Stream size : 121 MiB (8%)
Alignment : Aligned on interleaves
Interleave, duration : 42 ms (1.00 video frame)
Interleave, preload duration : 504 ms

Audio #2
ID : 2
Format : MPEG Audio
Format version : Version 1
Format profile : Layer 3
Codec ID : 55
Codec ID/Hint : MP3
Duration : 1h 28mn
Bit rate mode : Constant
Bit rate : 192 Kbps
Channel(s) : 2 channels
Sampling rate : 48.0 KHz
Stream size : 121 MiB (8%)
Alignment : Aligned on interleaves
Interleave, duration : 42 ms (1.00 video frame)
Interleave, preload duration : 504 ms



Скачать Земля.забытая.временем.Земля.динозавров.Путешествие.во.времени.The.Land.that.Time.Forgot.(С.Томас.Хауэлл.C.Thomas.Howell).[2009.фантастика.HDRip].torrent без регистрации
Золото ЗОЛОТАЯ РАЗДАЧА! СКАЧАННОЕ НЕ ЗАСЧИТЫВАЕТСЯ! Золото
Дата: Зарегистрирован   [ Тип: внутренний ] Как тут cкачать?
MAGNET ссылка
MAGNET ссылка


Скачать .torrent

15 KB

Статус: проверено DHT
Скачан: торрент - 243 раз, раздача полностью - 122 раз
Размер: 1,46 GB
Оценка:  5 (Голосов: 2)
Поблагодарили: 5
Поделиться ссылкой на эту раздачу с друзьями:
В контактеFacebookОдноклассникиTwitterLivejournalМой МирLiveinternet
 

 
Показать сообщения:    


Вы не можете начинать темы
Вы не можете отвечать на сообщения
Вы не можете редактировать свои сообщения
Вы не можете удалять свои сообщения
Вы не можете голосовать в опросах
Вы не можете прикреплять файлы к сообщениям
Вы можете скачивать файлы