Loading...
Error

Скачать Мир Себастьяна / Sebastians Verden / Sebastians World (Кнут Моллер Лиен / Knut Møller-Lien) [2010, драма, боевик, гей-тема, DVDRip] торрент без регистрации

 
Статистика раздачи
Размер:  1,11 GB   |    Скачан:  127 раз
Сидов:  1  [  0 KB/s  ]  
 
Автор Сообщение

МихаНЕзатор

[] 

Мир Себастьяна / Sebastians Verden / Sebastians World

Страна: Норвегия
Жанр: Драма, Боевик, Гей-тема
Год выпуска: 2010
Продолжительность: 01:34:32

Перевод: Любительский (одноголосый закадровый) || Перевод: yagulena; озвучка: Василий Кошкин.
Cубтитры: нет
Режиссер: Кнут Моллер Лиен / Knut Møller-Lien

В ролях: Андреас Уилсон, Кристиан Страндт, Champю, Ким Бодниа, Бреде Бёэ и др.

Описание: Добро пожаловать в «Мир Себастьяна» — мир жестокости и цинизма. Себастьян прилагает любые усилия к тому, чтобы осуществить свою мечту о роскошной жизни. Он готов пойти на преступления, заниматься проституцией и вымогательствами, лишь бы достичь своей цели. Но с другой стороны, он сентиментален, что выражается в его заботе о тех, кого он любит.

Сэмпл: http://multi-up.com/487351

Качество видео: DVDRip
Формат видео: AVI

Видео: XviD, 720x384, 1.875, 25.000 fps, 1 481 Kbps
Аудио: MP3, 44.1 KHz, 192 Kbps, 2 channels

General
Complete name : G:\На торрент\Sebastians_Verden rus.avi
Format : AVI
Format/Info : Audio Video Interleave
File size : 1.11 GiB
Duration : 1h 34mn
Overall bit rate : 1 683 Kbps

Video
ID : 0
Format : MPEG-4 Visual
Format profile : Advanced Simple@L5
Format settings, BVOP : No
Format settings, QPel : No
Format settings, GMC : No warppoints
Format settings, Matrix : Default (MPEG)
Codec ID : XVID
Codec ID/Hint : XviD
Duration : 1h 34mn
Bit rate : 1 481 Kbps
Width : 720 pixels
Height : 384 pixels
Display aspect ratio : 1.875
Frame rate : 25.000 fps
Resolution : 8 bits
Colorimetry : 4:2:0
Scan type : Progressive
Bits/(Pixel*Frame) : 0.214
Stream size : 1 002 MiB (88%)
Writing library : XviD 1.2.1 (UTC 2008-12-04)

Audio
ID : 1
Format : MPEG Audio
Format version : Version 1
Format profile : Layer 3
Codec ID : 55
Codec ID/Hint : MP3
Duration : 1h 34mn
Bit rate mode : Constant
Bit rate : 192 Kbps
Channel(s) : 2 channels
Sampling rate : 44.1 KHz
Stream size : 130 MiB (11%)
Alignment : Split accross interleaves
Interleave, duration : 40 ms (1.00 video frame)
Writing library : LAMELAME_MAJOR_VERSI



Скачать Мир.Себастьяна.Sebastians.Verden.Sebastians.World.(Кнут.Моллер.Лиен.Knut.Møller-Lien).[2010.драма.боевик.гей-тема.DVDRip].torrent без регистрации
Золото ЗОЛОТАЯ РАЗДАЧА! СКАЧАННОЕ НЕ ЗАСЧИТЫВАЕТСЯ! Золото
Дата: Зарегистрирован   [ Тип: внутренний ] Как тут cкачать?
MAGNET ссылка
MAGNET ссылка


Скачать .torrent

12 KB

Статус: проверено DHT
Скачан: торрент - 127 раз, раздача полностью - 36 раз
Размер: 1,11 GB
Оценка:  1 (Голосов: 1)
Поблагодарили: 0
Поделиться ссылкой на эту раздачу с друзьями:
В контактеFacebookОдноклассникиTwitterLivejournalМой МирLiveinternet
 

 
Показать сообщения:    


Вы не можете начинать темы
Вы не можете отвечать на сообщения
Вы не можете редактировать свои сообщения
Вы не можете удалять свои сообщения
Вы не можете голосовать в опросах
Вы не можете прикреплять файлы к сообщениям
Вы можете скачивать файлы