Loading...
Error

Скачать Отчаянные домохозяйки / Desperate Housewives (сезоны 01-08) [2004-2012, комедия, драма, детектив, мелодрама, WEB-DL] [720p] [Dub (Невафильм)]+[Eng] торрент без регистрации

 
Статистика раздачи
Размер:  249,87 GB   |    Скачан:  253 раза
Сидов:  1  [  0 KB/s  ]  
 
Автор Сообщение

МихаНЕзатор

[] 

Название: Отчаянные домохозяйки
Оригинальное название: Desperate Housewives
Год выхода: 2004-2012
Страна: США
Жанр: драма, мелодрама, комедия, детектив
Режиссер: Дэвид Гроссман, Ларри Шоу, Дэвид Уоррен

В ролях: Тери Хэтчер, Фелисити Хаффман, Марсия Кросс, Ева Лонгория, Николетт Шеридан, Бренда Стронг, Джеймс Дентон, Даг Сэвант, Рикардо Чавира, Шон Пайфром

Описание: Что скрывается за яркими фасадами пригородных домов? Что таят в себе беззаботные улыбки милых американских домохозяек? Ведь на самом деле всё не так мило и уютно, как может показаться на первый взгляд... Сериал открывает нам тайны и секреты обычных американских женщин, а этих самых тайн и секретов (уж поверьте, немало!). Сериал начинается с того, как добропорядочная американская домохозяйка Мэри Элис Янг оставляет свою жизнь в прекрасном доме с любимой семьёй и совершает самоубийство. Теперь она становится рассказчиком длинной истории под названием "Desperate Housewives". Главными же героями сериала становятся друзья и соседи Мэри Элис по улице Вистерия Лэйн, а именно: Сьюзан Мэйер - состоящая в разводе, одинокая мать; Линетт Скаво - оставившая карьеру ради семьи, состоящей из мужа, вечно разъежающего по командировкам и четырёх детей; Бри Ван Де Камп - "безупречная" до мозга костей домохозяйка, словно сошедшая с экрана телевизора 50-х годов США; Габриэль Солис - бывшая модель, у которой есть всё, чего она хочет - богатый муж, большой дом и любовник-садовник:) и серийная разведёнка Эдит Бритт, стерва, оставшаяся без дома. Мэри Элис, со своей уникальной позиции, теперь видит много такого, о чём в жизни и не подозревала, и она хочет поделиться с нами теми вкусностями, которые скрываются за дверьми домов её соседей в этом кажущемся безупречным американском пригороде.



Продолжительность: 180 х ~ 00:44:00
Перевод: Профессиональный (полное дублирование) - Невафильм

Качество: WEB-DL (720p)
Видео: MPEG-4 AVC, ~ 4100 Кбит/с, 1280x720
Аудио: Русский (AC3, 2 ch, 192 Кбит/с), английский (AC3, 6 ch, 384 Кбит/с)

АНОНСЫ ПОПУЛЯРНЫХ РАЗДАЧ


Торрент обновлён, улучшен видеоряд, звук, собраны вместе все 8 сезонов!

Эмми, 2012 год
Номинации (1):
Лучшая женская роль второго плана в комедийном сериале (Кэтрин Джустен)

Эмми, 2010 год
Номинации (1):
Лучшая приглашенная актриса в комедийном сериале (Кэтрин Джустен)

Эмми, 2009 год
Номинации (1):
Лучший приглашенный актер в комедийном сериале (Бо Бриджес)

Премия Гильдии актеров, 2009 год
Номинации (1):
Лучший актерский состав комедийного сериала

Эмми, 2008 год
Победитель (1):
Лучшая приглашенная актриса в комедийном сериале (Кэтрин Джустен)
Номинации (1):
Лучшая приглашенная актриса в комедийном сериале (Полли Берген)

Премия Гильдии актеров, 2008 год
Номинации (1):
Лучший актерский состав комедийного сериала

Золотой глобус, 2007 год
Номинации (3):
Лучшая женская роль на ТВ (комедия или мюзикл) (Марсия Кросс)
Лучшая женская роль на ТВ (комедия или мюзикл) (Фелисити Хаффман)
Лучший сериал (комедия или мюзикл)

Эмми, 2007 год
Номинации (3):
Лучшая женская роль в комедийном сериале (Фелисити Хаффман)
Лучшая приглашенная актриса в комедийном сериале (Лори Меткаф)
Лучшая приглашенная актриса в комедийном сериале (Дикси Картер)

Премия Гильдии актеров, 2007 год
Номинации (2):
Лучший актерский состав комедийного сериала
Лучшая актриса комедийного сериала (Фелисити Хаффман)

Золотой глобус, 2006 год
Победитель (1):
Лучший сериал (комедия или мюзикл)
Номинации (4):
Лучшая женская роль на ТВ (комедия или мюзикл) (Тери Хэтчер)
Лучшая женская роль на ТВ (комедия или мюзикл) (Фелисити Хаффман)
Лучшая женская роль на ТВ (комедия или мюзикл) (Марсия Кросс)
Лучшая женская роль на ТВ (комедия или мюзикл) (Ева Лонгория)

Эмми, 2006 год
Номинации (2):
Лучшая приглашенная актриса в комедийном сериале (Ширли Найт)
Лучшая женская роль второго плана в комедийном сериале (Элфри Вудард)

Премия Гильдии актеров, 2006 год
Победитель (2):
Лучший актерский состав комедийного сериала
Лучшая актриса комедийного сериала (Фелисити Хаффман)

Золотой глобус, 2005 год
Победитель (2):
Лучшая женская роль на ТВ (комедия или мюзикл) (Тери Хэтчер)
Лучший сериал (комедия или мюзикл)
Номинации (3):
Лучшая женская роль на ТВ (комедия или мюзикл)
Лучшая женская роль на ТВ (комедия или мюзикл)
Лучшая актриса второго плана мини-сериала или фильма на ТВ (Николетт Шеридан)

Эмми, 2005 год
Победитель (2):
Лучшая женская роль в комедийном сериале (Фелисити Хаффман)
Лучшая приглашенная актриса в комедийном сериале (Кэтрин Джустен)
Номинации (5):
Лучший комедийный сериал
Лучшая женская роль в комедийном сериале (Марсия Кросс)
Лучшая женская роль в комедийном сериале (Тери Хэтчер)
Лучшая приглашенная актриса в комедийном сериале (Лупе Онтиверос)
Лучшие вступительные титры

Премия Гильдии актеров, 2005 год
Победитель (2):
Лучший актерский состав комедийного сериала
Лучшая актриса комедийного сериала (Тери Хэтчер)


Формат : Matroska
Версия формата : Version 2
Размер файла : 1,44 Гбайт
Продолжительность : 43 м.
Общий поток : 4729 Кбит/сек
Дата кодирования : UTC 2012-08-01 06:20:38
Программа кодирования : mkvmerge v5.6.0 ('Kenya Kane') built on May 27 2012 16:44:04
Библиотека кодирования : libebml v1.2.3 + libmatroska v1.3.0

Видео
Идентификатор : 1
Формат : AVC
Формат/Информация : Advanced Video Codec
Профиль формата : High@L3.1
Параметр CABAC формата : Нет
Параметр ReFrames формата : 2 кадра
Идентификатор кодека : V_MPEG4/ISO/AVC
Продолжительность : 43 м.
Битрейт : 4059 Кбит/сек
Ширина : 1280 пикселей
Высота : 720 пикселей
Соотношение сторон : 16:9
Режим частоты кадров : Постоянный
Частота кадров : 23,976 кадра/сек
Цветовое пространство : YUV
Субдискретизация насыщенности : 4:2:0
Битовая глубина : 8 бит
Тип развёртки : Прогрессивная
Бит/(Пиксели*Кадры) : 0.184
Размер потока : 1,23 Гбайт (86%)
Заголовок : Let Me Entertain You / Позвольте Мне Развлечь Вас
Язык : English
Default : Да
Forced : Нет
Основные цвета : BT.709
Характеристики трансфера : BT.709
Коэффициенты матрицы : BT.709

Аудио #1
Идентификатор : 2
Формат : AC-3
Формат/Информация : Audio Coding 3
Расширение режима : CM (complete main)
Параметр Endianness формата : Big
Идентификатор кодека : A_AC3
Продолжительность : 43 м.
Вид битрейта : Постоянный
Битрейт : 192 Кбит/сек
Каналы : 2 канала
Расположение каналов : Front: L R
Частота : 48,0 КГц
Битовая глубина : 16 бит
Метод сжатия : С потерями
Размер потока : 59,8 Мбайт (4%)
Заголовок : Дубляж Невафильм
Язык : Russian
Default : Да
Forced : Нет

Аудио #2
Идентификатор : 3
Формат : AC-3
Формат/Информация : Audio Coding 3
Расширение режима : CM (complete main)
Параметр Endianness формата : Big
Идентификатор кодека : A_AC3
Продолжительность : 43 м.
Вид битрейта : Постоянный
Битрейт : 384 Кбит/сек
Каналы : 6 каналов
Расположение каналов : Front: L C R, Side: L R, LFE
Частота : 48,0 КГц
Битовая глубина : 16 бит
Метод сжатия : С потерями
Размер потока : 120 Мбайт (8%)
Заголовок : Original DD 5.1
Язык : English
Default : Нет
Forced : Нет



Скачать Отчаянные.домохозяйки.Desperate.Housewives.(сезоны.01-08).[2004-2012.комедия.драма.детектив.мелодрама.WEB-DL].[720p].[Dub.(Невафильм)]+[Eng].torrent без регистрации
Золото ЗОЛОТАЯ РАЗДАЧА! СКАЧАННОЕ НЕ ЗАСЧИТЫВАЕТСЯ! Золото
Дата: Зарегистрирован   [ Тип: внутренний ] Как тут cкачать?
MAGNET ссылка
MAGNET ссылка


Скачать .torrent

1 MB

Статус: проверено DHT
Скачан: торрент - 253 раз, раздача полностью - 1 раз
Размер: 249,87 GB
Оценка:  5 (Голосов: 1)
Поблагодарили: 0
Поделиться ссылкой на эту раздачу с друзьями:
В контактеFacebookОдноклассникиTwitterLivejournalМой МирLiveinternet
 

 
Показать сообщения:    


Вы не можете начинать темы
Вы не можете отвечать на сообщения
Вы не можете редактировать свои сообщения
Вы не можете удалять свои сообщения
Вы не можете голосовать в опросах
Вы не можете прикреплять файлы к сообщениям
Вы можете скачивать файлы