Loading...
Error

Скачать Телепорт / Jumper (Даг Лиман) [2008, фантастика, боевик, триллер, приключения, BDRip-AVC] [Dub (Rus+Ukr) R5]+[MVO]+2x[AVO (А. Гаврилов, Ю. Немахов)] торрент без регистрации

 
Статистика раздачи
Размер:  3,06 GB   |    Скачан:  244 раза
Сидов:  1  [  0 KB/s  ]  
 
Автор Сообщение

МихаНЕзатор

[] 



Информация о фильме
Название: Телепорт
Оригинальное название: Jumper
Год выхода: 2008
Жанр: Фантастика, боевик, триллер, приключения
Режиссер: Даг Лайман

В ролях: Хейден Кристенсен, Джейми Белл, Рэйчел Билсон, Дайан Лэйн, Сэмюэл Л. Джексон, Майкл Рукер, Анна-София Робб, Макс Тириот, Джесси Джеймс, Том Халс, Кристен Стюарт, Тедди Данн, Барбара Гэррик, Майкл Уинтер, Массимилиано Паццаглиа, Шон Робертс, Натали Кокс, Мередит Хендерсон, Дамир Андрей, Тони Наппо, Джордж Кинг, Кларк Бисли мл., Симона Лиси, Маттео Карломаньо, Фабрицио Буччи, Джорджо Сантанжело, Марселло Сантони, Франко Сальваторе Ди Стефано, Брэд Бобридж, Анджело Лопез, Роберто Антонелли, Вероника Визентен, Кристиан Пайкс

О фильме: Подросток из неблагополучного района Дэвид Райс всегда считал себя обычным парнем, пока однажды он не узнал, что он может телепортироваться с места на место. Новые способности открыли перед ним весь мир. Он может побывать в Нью-Йорке и Токио, посетить античные развалины в Риме, увидеть «крышу мира» с горы Эверест, увидеть 20 рассветов и 20 закатов. И все в один день. Теперь ему не нужны деньги он может взять сколько хочет. Однако в один момент он обнаруживает, что стал мишенью. На него, как и на других подобных ему, объявлена охота. На протяжении тысячи лет тайное общество стремится уничтожить их. Вскоре Дэвид узнает истинную ценность его новых способностей...

Релиз от:

Страна: США, Канада
Студия: 20th Century Fox Film Corporation, Dune Entertainment, Epsilon Motion Pictures, Jumper Productions, New Regency Pictures, Regency Enterprises
Продолжительность: 01:28:21
Перевод: Дублированный, профессиональный (многоголосый закадровый), авторский (одноголосый закадровый)

Файл
Кодек: h.264
Качество: BDRip-AVC
Видео: 2654 Кбит/с, 1024x576, 23.976 кадр/c

Звук:
1: Русский (АС3, 6 ch, 384 Кбит/с) Дублированный [BD CEE]
2: Русский (АС3, 6 ch, 384 Кбит/с) Профессиональный многоголосый [Студия "Кравец", LostFilm]
3: Русский (АС3, 6 ch, 384 Кбит/с) Авторский одноголосый [Андрей Гаврилов]
4: Русский (АС3, 6 ch, 384 Кбит/с) Авторский одноголосый [Юрий Немахов]
5: Украинский (АС3, 6 ch, 384 Кбит/с) Дублированный [R5]
6: Английский (АС3, 6 ch, 384 Кбит/с)

Субтитры: Русские, украинские, английские

21.11.2013 г. торент обновлён, заменено видео и звук!

Open Matte-версия фильма
Сравнение наполнения кадра http://screenshotcomparison.com/comparison/49442

--------------------------------------------------------------------
x264 [info]: frame I:821 Avg QP:16.07 size:105303
x264 [info]: frame P:38114 Avg QP:19.99 size: 26905
x264 [info]: frame B:88155 Avg QP:21.57 size: 7311
--------------------------------------------------------------------

Полное имя : Jumper.2008.-Open.Matte-.x264.BDRip.(AVC).0ptimus.mkv
Формат : Matroska
Версия формата : Version 4 / Version 2
Размер файла : 3,06 Гбайт
Продолжительность : 1 ч. 28 м.
Общий поток : 4958 Кбит/сек
Название фильма : Телепорт | Jumper [2008] Open Matte -=BDRip (AVC) by 0ptimus=-
Дата кодирования : UTC 2013-11-18 15:41:17
Программа кодирования : mkvmerge v6.1.0 ('Old Devil') built on Mar 2 2013 14:32:37
Библиотека кодирования : libebml v1.3.0 + libmatroska v1.4.0

Видео
Идентификатор : 1
Формат : AVC
Формат/Информация : Advanced Video Codec
Профиль формата : High@L4.1
Параметр CABAC формата : Да
Параметр ReFrames формата : 9 кадров
Идентификатор кодека : V_MPEG4/ISO/AVC
Продолжительность : 1 ч. 28 м.
Битрейт : 2654 Кбит/сек
Ширина : 1024 пикселя
Высота : 576 пикселей
Соотношение сторон : 16:9
Частота кадров : 23,976 кадра/сек
Цветовое пространство : YUV
Субдискретизация насыщенности : 4:2:0
Битовая глубина : 8 бит
Тип развёртки : Прогрессивная
Бит/(Пиксели*Кадры) : 0.188
Размер потока : 1,58 Гбайт (52%)
Заголовок : Rip by 0ptimus
Библиотека кодирования : x264 core 133 r2334 a3ac64b
Настройки программы : cabac=1 / ref=9 / deblock=1:-3:-3 / analyse=0x3:0x113 / me=umh / subme=11 / psy=1 / psy_rd=1.00:0.20 / mixed_ref=1 / me_range=48 / chroma_me=1 / trellis=2 / 8x8dct=1 / cqm=0 / deadzone=21,11 / fast_pskip=0 / chroma_qp_offset=-3 / threads=4 / lookahead_threads=1 / sliced_threads=0 / nr=0 / decimate=0 / interlaced=0 / bluray_compat=0 / constrained_intra=0 / bframes=11 / b_pyramid=2 / b_adapt=2 / b_bias=0 / direct=3 / weightb=1 / open_gop=0 / weightp=2 / keyint=240 / keyint_min=23 / scenecut=40 / intra_refresh=0 / rc_lookahead=40 / rc=2pass / mbtree=0 / bitrate=2654 / ratetol=1.0 / qcomp=0.60 / qpmin=0 / qpmax=69 / qpstep=4 / cplxblur=20.0 / qblur=0.5 / vbv_maxrate=50000 / vbv_bufsize=50000 / nal_hrd=none / ip_ratio=1.40 / pb_ratio=1.30 / aq=1:1.00
Язык : English

Аудио #1
Идентификатор : 2
Формат : AC-3
Формат/Информация : Audio Coding 3
Расширение режима : CM (complete main)
Идентификатор кодека : A_AC3
Продолжительность : 1 ч. 28 м.
Вид битрейта : Постоянный
Битрейт : 384 Кбит/сек
Каналы : 6 каналов
Расположение каналов : Front: L C R, Side: L R, LFE
Частота : 48,0 КГц
Битовая глубина : 16 бит
Метод сжатия : С потерями
Размер потока : 243 Мбайт (8%)
Заголовок : Дублированный [BD CEE] AC3 5.1 @ 384 kbps
Язык : Russian

Аудио #2
Идентификатор : 3
Формат : AC-3
Формат/Информация : Audio Coding 3
Расширение режима : CM (complete main)
Идентификатор кодека : A_AC3
Продолжительность : 1 ч. 28 м.
Вид битрейта : Постоянный
Битрейт : 384 Кбит/сек
Каналы : 6 каналов
Расположение каналов : Front: L C R, Side: L R, LFE
Частота : 48,0 КГц
Битовая глубина : 16 бит
Метод сжатия : С потерями
Размер потока : 243 Мбайт (8%)
Заголовок : Многоголосый [Студия "Кравец", LostFilm] AC3 5.1 @ 384 kbps
Язык : Russian

Аудио #3
Идентификатор : 4
Формат : AC-3
Формат/Информация : Audio Coding 3
Расширение режима : CM (complete main)
Идентификатор кодека : A_AC3
Продолжительность : 1 ч. 28 м.
Вид битрейта : Постоянный
Битрейт : 384 Кбит/сек
Каналы : 6 каналов
Расположение каналов : Front: L C R, Side: L R, LFE
Частота : 48,0 КГц
Битовая глубина : 16 бит
Метод сжатия : С потерями
Размер потока : 243 Мбайт (8%)
Заголовок : Авторский [Андрей Гаврилов] AC3 5.1 @ 384 kbps
Язык : Russian

Аудио #4
Идентификатор : 5
Формат : AC-3
Формат/Информация : Audio Coding 3
Расширение режима : CM (complete main)
Идентификатор кодека : A_AC3
Продолжительность : 1 ч. 28 м.
Вид битрейта : Постоянный
Битрейт : 384 Кбит/сек
Каналы : 6 каналов
Расположение каналов : Front: L C R, Side: L R, LFE
Частота : 48,0 КГц
Битовая глубина : 16 бит
Метод сжатия : С потерями
Размер потока : 243 Мбайт (8%)
Заголовок : Авторский [Юрий Немахов] AC3 5.1 @ 384 kbps
Язык : Russian

Аудио #5
Идентификатор : 6
Формат : AC-3
Формат/Информация : Audio Coding 3
Расширение режима : CM (complete main)
Идентификатор кодека : A_AC3
Продолжительность : 1 ч. 28 м.
Вид битрейта : Постоянный
Битрейт : 384 Кбит/сек
Каналы : 6 каналов
Расположение каналов : Front: L C R, Side: L R, LFE
Частота : 48,0 КГц
Битовая глубина : 16 бит
Метод сжатия : С потерями
Размер потока : 243 Мбайт (8%)
Заголовок : Дублированный [R5] AC3 5.1 @ 384 kbps
Язык : Ukrainian

Аудио #6
Идентификатор : 7
Формат : AC-3
Формат/Информация : Audio Coding 3
Расширение режима : CM (complete main)
Идентификатор кодека : A_AC3
Продолжительность : 1 ч. 28 м.
Вид битрейта : Постоянный
Битрейт : 384 Кбит/сек
Каналы : 6 каналов
Расположение каналов : Front: L C R, Side: L R, LFE
Частота : 48,0 КГц
Битовая глубина : 16 бит
Метод сжатия : С потерями
Размер потока : 243 Мбайт (8%)
Заголовок : AC3 5.1 @ 384 kbps
Язык : English

Текст #1
Идентификатор : 8
Формат : UTF-8
Идентификатор кодека : S_TEXT/UTF8
Идентификатор кодека/Информация : UTF-8 Plain Text
Язык : Russian

Текст #2
Идентификатор : 9
Формат : UTF-8
Идентификатор кодека : S_TEXT/UTF8
Идентификатор кодека/Информация : UTF-8 Plain Text
Язык : Ukrainian

Текст #3
Идентификатор : 10
Формат : UTF-8
Идентификатор кодека : S_TEXT/UTF8
Идентификатор кодека/Информация : UTF-8 Plain Text
Язык : English

Меню
00:00:00.000 : en:Through the Ice
00:04:21.094 : en:Way to Be Free
00:07:52.555 : en:First Heist (Main Titles)
00:12:35.713 : en:The Paladin
00:15:08.699 : en:Touring the World
00:17:46.982 : en:Consequences
00:22:51.787 : en:Homecoming
00:25:51.466 : en:Seeing a Ghost
00:28:57.235 : en:Been a Long Time
00:31:46.988 : en:Beamed In
00:32:57.058 : en:Too Good to Be True
00:36:18.092 : en:First on My List
00:39:52.640 : en:Welcome to the War
00:43:21.056 : en:A Lot of Questions
00:48:47.299 : en:Different Tack
00:51:01.725 : en:Fanatics
00:54:48.285 : en:Joining Forces
00:59:15.969 : en:Now or Never
01:02:11.728 : en:Your Friend Came By
01:07:32.673 : en:Always You
01:12:45.402 : en:Jumper vs. Jumper
01:17:04.411 : en:A Long Way
01:20:39.584 : en:Head Start
01:23:49.065 : en:End Titles



Скачать Телепорт.Jumper.(Даг.Лиман).[2008.фантастика.боевик.триллер.приключения.BDRip-AVC].[Dub.(Rus+Ukr).R5]+[MVO]+2x[AVO.(А.Гаврилов.Ю.Немахов)].torrent без регистрации
Золото ЗОЛОТАЯ РАЗДАЧА! СКАЧАННОЕ НЕ ЗАСЧИТЫВАЕТСЯ! Золото
Дата: Зарегистрирован   [ Тип: внутренний ] Как тут cкачать?
MAGNET ссылка
MAGNET ссылка


Скачать .torrent

16 KB

Статус: проверено DHT
Скачан: торрент - 244 раз, раздача полностью - 113 раз
Размер: 3,06 GB
Оценка:  5 (Голосов: 1)
Поблагодарили: 5
Поделиться ссылкой на эту раздачу с друзьями:
В контактеFacebookОдноклассникиTwitterLivejournalМой МирLiveinternet
 

 

МихаНЕзатор

[] 

Раздача обновлена
 
Показать сообщения:    


Вы не можете начинать темы
Вы не можете отвечать на сообщения
Вы не можете редактировать свои сообщения
Вы не можете удалять свои сообщения
Вы не можете голосовать в опросах
Вы не можете прикреплять файлы к сообщениям
Вы можете скачивать файлы