Loading...
Error

Скачать Суррогаты / Surrogates (Джонатан Мостоу / Jonathan Mostow) [2009, фантастика, боевик, триллер, BDRip] торрент без регистрации

 
Статистика раздачи
Размер:  2,19 GB   |    Скачан:  175 раз
Сидов:  1  [  0 KB/s  ]  
 
Автор Сообщение

МихаНЕзатор

[] 

Суррогаты / Surrogates (2009) BDRip

Страна: США
Жанр: фантастика, боевик, триллер
Год выпуска: 2009
Продолжительность: 01:24:57

Перевод: Профессиональный (дублированный)
Cубтитры: русские, русские-надписи, английские.
Оригинальная аудиодорожка: английский

Режиссер: Джонатан Мостоу / Jonathan Mostow

В ролях: Брюс Уиллис, Рада Митчел, Розамунд Пайк, Борис Коджо, Джеймс Джинти, Джеймс Кромуэлл, Винг Рэймс, Джек Ноузуорти, Девин Рэтрей, Майкл Кудиц

Описание: Действие разворачивается в будущем, в 2057 году, - когда люди практически перестанут общаться между собой и полностью возложат эту функцию на плечи роботов-заменителей. Они сильнее, моложе, привлекательнее своих обладателей и даже могут быть другого пола. Но находится террорист, начинающий уничтожать идеальных андроидов. Полицейскому Харви Гриру предстоит узнать, какие причины движут злоумышленником, лишающим жизни людей и их марионеток, технически и физически совершенных.

Доп. информация:

СЭМПЛ

Качество видео: BDRip(Исх. BDRemux)
Формат видео: AVI

Видео: 720x304 (2.37:1), 23.976 fps, XviD MPEG-4 ~2161 kbps avg, 0.41 bit/pixel
Аудио: 48 kHz, AC3 Dolby Digital, 3/2 (L,C,R,l,r) + LFE ch, ~384 kbps DUB
Аудио: 44.100 kHz, MPEG Layer 3, 2 ch, ~192.00 kbps avg VO - Вадим Архипов
Аудио: 48 kHz, AC3 Dolby Digital, 3/2 (L,C,R,l,r) + LFE ch, ~384 kbps DUB UKR
Аудио: 48 kHz, AC3 Dolby Digital, 3/2 (L,C,R,l,r) + LFE ch, ~384 kbps ENG
Формат субтитров: softsub (SRT)

File: Surrogates.chopper887.avi
Title: Surrogates.chopper887
Author: chopper887
Genre: Action/Crime/Fantasy
Category: Movie
Filesize: 2237.76 Mb ( 2 346 459 136 bytes )
Play length: 01:28:36.311 (127464 frames)
Subtitles: ENG, RUS.FULL, RUS (SubRip format)
Video: 720x304 (2.37:1), 23.976 fps, XviD MPEG-4 ~2161 kbps avg, 0.41 bit/pixel
Audio #1: 48 kHz, AC3 Dolby Digital, 3/2 (L,C,R,l,r) + LFE ch, ~384 kbps
Audio #2: 44.100 kHz, MPEG Layer 3, 2 ch, ~192.00 kbps avg
Audio #3: 48 kHz, AC3 Dolby Digital, 3/2 (L,C,R,l,r) + LFE ch, ~384 kbps
Audio #4: 48 kHz, AC3 Dolby Digital, 6 ch, ~384.00 kbps avg

General
Complete name : L:Surrogates.chopper887Surrogates.chopper887.avi
Format : AVI
Format/Info : Audio Video Interleave
File size : 2.19 GiB
Duration : 1h 28mn
Overall bit rate : 3 531 Kbps
Movie name : Surrogates.chopper887
Director : chopper887
Genre : Action/Crime/Fantasy
Writing application : VirtualDubMod 1.5.10.2 (build 2540/release)
Original source form/Name : Movie

Video
ID : 0
Format : MPEG-4 Visual
Format profile : AdvancedSimple@L5
Format settings, BVOP : Yes
Format settings, QPel : No
Format settings, GMC : No warppoints
Format settings, Matrix : Custom
Codec ID : XVID
Codec ID/Hint : XviD
Duration : 1h 28mn
Bit rate : 2 164 Kbps
Width : 720 pixels
Height : 304 pixels
Display aspect ratio : 2.35:1
Frame rate : 23.976 fps
Resolution : 24 bits
Colorimetry : 4:2:0
Scan type : Progressive
Bits/(Pixel*Frame) : 0.412
Stream size : 1.34 GiB (61%)
Writing library : XviD 1.2.1 (UTC 2008-12-04)

Audio #1
ID : 1
Format : AC-3
Format/Info : Audio Coding 3
Codec ID : 2000
Duration : 1h 28mn
Bit rate mode : Constant
Bit rate : 384 Kbps
Channel(s) : 6 channels
Channel positions : Front: L C R, Surround: L R, LFE
Sampling rate : 48.0 KHz
Stream size : 243 MiB (11%)
Alignment : Split accross interleaves
Interleave, duration : 42 ms (1.00 video frame)
Interleave, preload duration : 500 ms

Audio #2
ID : 2
Format : MPEG Audio
Format version : Version 1
Format profile : Layer 3
Format_Settings_Mode : Joint stereo
Codec ID : 55
Codec ID/Hint : MP3
Duration : 1h 28mn
Bit rate mode : Constant
Bit rate : 192 Kbps
Channel(s) : 2 channels
Sampling rate : 44.1 KHz
Resolution : 16 bits
Stream size : 122 MiB (5%)
Alignment : Split accross interleaves
Interleave, duration : 42 ms (1.00 video frame)
Interleave, preload duration : 500 ms

Audio #3
ID : 3
Format : AC-3
Format/Info : Audio Coding 3
Codec ID : 2000
Duration : 1h 28mn
Bit rate mode : Constant
Bit rate : 384 Kbps
Channel(s) : 6 channels
Channel positions : Front: L C R, Surround: L R, LFE
Sampling rate : 48.0 KHz
Stream size : 243 MiB (11%)
Alignment : Split accross interleaves
Interleave, duration : 42 ms (1.00 video frame)
Interleave, preload duration : 500 ms

Audio #4
ID : 4
Format : AC-3
Format/Info : Audio Coding 3
Codec ID : 2000
Duration : 1h 28mn
Bit rate mode : Constant
Bit rate : 384 Kbps
Channel(s) : 6 channels
Channel positions : Front: L C R, Surround: L R, LFE
Sampling rate : 48.0 KHz
Stream size : 243 MiB (11%)
Alignment : Split accross interleaves
Interleave, duration : 42 ms (1.00 video frame)
Interleave, preload duration : 500 ms



Скачать Суррогаты.Surrogates.(Джонатан.Мостоу.Jonathan.Mostow).[2009.фантастика.боевик.триллер.BDRip].torrent без регистрации
Золото ЗОЛОТАЯ РАЗДАЧА! СКАЧАННОЕ НЕ ЗАСЧИТЫВАЕТСЯ! Золото
Дата: Зарегистрирован   [ Тип: внутренний ] Как тут cкачать?
MAGNET ссылка
MAGNET ссылка


Скачать .torrent

12 KB

Статус: проверено DHT
Скачан: торрент - 175 раз, раздача полностью - 107 раз
Размер: 2,19 GB
Оценка:  5 (Голосов: 2)
Поблагодарили: 4
Поделиться ссылкой на эту раздачу с друзьями:
В контактеFacebookОдноклассникиTwitterLivejournalМой МирLiveinternet
 

 
Показать сообщения:    


Вы не можете начинать темы
Вы не можете отвечать на сообщения
Вы не можете редактировать свои сообщения
Вы не можете удалять свои сообщения
Вы не можете голосовать в опросах
Вы не можете прикреплять файлы к сообщениям
Вы можете скачивать файлы