Loading...
Error

Скачать Добро пожаловать домой, Роско Дженкинс / Welcome Home, Roscoe Jenkins (Малкольм Д. Ли / Malcolm D. Lee) [2008, США, Комедия, WEB-DLRip] MVO торрент без регистрации

 
Статистика раздачи
Размер:  1,47 GB   |    Скачан:  5450 раз
Сидов:  1  [  375 KB/s  ]  
 
Автор Сообщение

Pasha74

[] 

Добро пожаловать домой, Роско Дженкинс / Welcome Home, Roscoe Jenkins
«Поездка домой - совсем не отдых!»

Страна: США
Жанр: Комедия
Год выпуска: 2008
Продолжительность: 01:53:53
Перевод: Профессиональный (многоголосый закадровый) [R5]
Cубтитры: нет
Режиссер: Малкольм Д. Ли / Malcolm D. Lee
В ролях: Мартин Лоуренс, Джеймс Эрл Джонс, Маргарет Эйвери, Джой Брайант, Николь Ари Паркер, Майкл Кларк Дункан, Майк Эппс, Моник, Дамани Робертс
Описание: Отец-одиночка становится ведущим рейтингового ток-шоу и в мгновение ока его жизнь превращается в сказку — платиновая кредитная карточка, звезда-невеста. Однако, когда он возвращается в семейное гнездо на 50-летнюю годовщину свадьбы своих родителей, его новые ценности не выдерживают испытания.
Sample | IMDB | КиноПоиск
Тип релиза: WEB-DLRip [исх. WEB-DL 1080p]
Формат видео: AVI
Видео: 720x384 (1.88:1), 23.976 fps, XviD build 50, 1448 kbps avg, 0.22 bit/pixel
Аудио: 48 kHz, AC3 Dolby Digital, 3/2 (L,C,R,l,r) + LFE ch, 384.00 kbps avg [Russian_MVO]
Релиз группы:

Любительская озвучка"]
General
Complete name : D:\Мои релизы\Welcome Home RJ_WEB-DLRip_RG_All_Films.avi
Format : AVI
Format/Info : Audio Video Interleave
File size : 1.47 GiB
Duration : 1h 53mn
Overall bit rate : 1 842 Kbps
Writing application : VirtualDubMod 1.5.10.3 | www.virtualdub-fr.org || (build 2550/release)
Writing library : VirtualDubMod build 2550/release
Video
ID : 0
Format : MPEG-4 Visual
Format profile : Advanced Simple@L5
Format settings, BVOP : Yes
Format settings, QPel : No
Format settings, GMC : No warppoints
Format settings, Matrix : Custom
Codec ID : XVID
Codec ID/Hint : XviD
Duration : 1h 53mn
Bit rate : 1 449 Kbps
Width : 720 pixels
Height : 384 pixels
Display aspect ratio : 1.875
Frame rate : 23.976 fps
Color space : YUV
Chroma subsampling : 4:2:0
Bit depth : 8 bits
Scan type : Progressive
Compression mode : Lossy
Bits/(Pixel*Frame) : 0.219
Stream size : 1.15 GiB (79%)
Writing library : XviD 1.2.1 (UTC 2008-12-04)
Audio
ID : 1
Format : AC-3
Format/Info : Audio Coding 3
Mode extension : CM (complete main)
Codec ID : 2000
Duration : 1h 53mn
Bit rate mode : Constant
Bit rate : 384 Kbps
Channel(s) : 6 channels
Channel positions : Front: L C R, Side: L R, LFE
Sampling rate : 48.0 KHz
Bit depth : 16 bits
Compression mode : Lossy
Stream size : 313 MiB (21%)
Alignment : Split accross interleaves
Interleave, duration : 42 ms (1.00 video frame)
Interleave, preload duration : 500 ms



Скачать Добро.пожаловать.домой.Роско.Дженкинс.Welcome.Home.Roscoe.Jenkins.(Малкольм.Д.Ли.Malcolm.D.Lee).[2008.США.Комедия.WEB-DLRip].MVO.torrent без регистрации
Золото ЗОЛОТАЯ РАЗДАЧА! СКАЧАННОЕ НЕ ЗАСЧИТЫВАЕТСЯ! Золото
Дата: Зарегистрирован   [ Тип: внутренний ] Как тут cкачать?
MAGNET ссылка
MAGNET ссылка


Скачать .torrent

15 KB

Статус: проверено DHT
Скачан: торрент - 5450 раз, раздача полностью - 24 раз
Размер: 1,47 GB
Оценка:  5 (Голосов: 1)
Поблагодарили: 1
Поделиться ссылкой на эту раздачу с друзьями:
В контактеFacebookОдноклассникиTwitterLivejournalМой МирLiveinternet
 

 

Иван 45

[] 

Можно раздачу ab
 

Shara

[] 

Торрент перезалит, просьба скачать заново.
 
Показать сообщения:    


Вы не можете начинать темы
Вы не можете отвечать на сообщения
Вы не можете редактировать свои сообщения
Вы не можете удалять свои сообщения
Вы не можете голосовать в опросах
Вы не можете прикреплять файлы к сообщениям
Вы можете скачивать файлы