Loading...
Error

Скачать Мальчик на троих / Grandma's Boy (Nicholaus Goossen) [2006, Комедия, DVDRip] торрент без регистрации

 
Статистика раздачи
Размер:  1,36 GB   |    Скачан:  163 раза
Сидов:  1  [  0 KB/s  ]  
 
Автор Сообщение

Marsianka

[] 

Мальчик на троих / Grandma's Boy

Год выпуска: 2006
Страна: США
Жанр: Комедия
Продолжительность: 1:34:43
Перевод: Профессиональный (полное дублирование)

Режиссер: Nicholaus Goossen

В ролях: Линда Карделлини, Аллен Коверт, Питер Данте, Ширли Джонс, Ширли Найт, Джоэль Мур, Кевин Нилон, Дорис Робертс, Ник Свардсон, Йон Хилл

Описание: После того, как сосед по комнате тратит все их деньги на проституток, а конкурент крадет новейшую игру, 35-летний Алекс ас по видеоиграм, остается ни с чем! Он вынужден переселиться к своей бабушке, и двум ее подругам.
Которые, как выяснилось, еще ох как могут зажигать! Фанаты-геймеры и травка, секс и вечеринки, отвязные старушки, шимпанзе и тэквандо!


General
Complete name : Мальчик на Троих.avi
Format : AVI
Format/Info : Audio Video Interleave
File size : 1.36 GiB
Duration : 1h 30mn
Overall bit rate : 2 170 Kbps
Video #0
ID : 0
Format : MPEG-4 Visual
Format profile : AdvancedSimple@L5
Format settings, BVOP : Yes
Format settings, QPel : No
Format settings, GMC : No warppoints
Format settings, Matrix : Custom
Codec ID : XVID
Codec ID/Hint : XviD
Duration : 1h 30mn
Bit rate : 1 779 Kbps
Width : 704 pixels
Height : 304 pixels
Display aspect ratio : 2.35:1
Frame rate : 25.000 fps
Resolution : 24 bits
Colorimetry : 4:2:0
Scan type : Progressive
Bits/(Pixel*Frame) : 0.333
Stream size : 1.12 GiB (82%)
Writing library : XviD 1.2.0.dev47 (UTC 2006-11-01)
Audio #1
ID : 1
Format : AC-3
Format/Info : Audio Coding 3
Codec ID : 2000
Duration : 1h 29mn
Bit rate mode : Constant
Bit rate : 384 Kbps
Channel(s) : 6 channels
Channel positions : Front: L C R, Surround: L R, LFE
Sampling rate : 48.0 KHz
Stream size : 247 MiB (18%)
Alignment : Split accross interleaves
Interleave, duration : 96 ms (2.40 video frames)
Interleave, preload duration : 96 ms
Качество: DVDRip
Формат: AVI
Видео кодек: XviD
Аудио кодек: AC3
Видео: XVID 704x304 25.00fps 1779 кб/с
Аудио: Dolby AC3 48000Hz 6ch 384Kbps



Скачать Мальчик.на.троих.Grandma's.Boy.(Nicholaus.Goossen).[2006.Комедия.DVDRip].torrent без регистрации
Золото ЗОЛОТАЯ РАЗДАЧА! СКАЧАННОЕ НЕ ЗАСЧИТЫВАЕТСЯ! Золото
Дата: Зарегистрирован   [ Тип: внутренний ] Как тут cкачать?
MAGNET ссылка
MAGNET ссылка


Скачать .torrent

14 KB

Статус: проверено DHT
Скачан: торрент - 163 раз, раздача полностью - 128 раз
Размер: 1,36 GB
Оценка:  4 (Голосов: 1)
Поблагодарили: 2
Поделиться ссылкой на эту раздачу с друзьями:
В контактеFacebookОдноклассникиTwitterLivejournalМой МирLiveinternet
 

 
Показать сообщения:    


Вы не можете начинать темы
Вы не можете отвечать на сообщения
Вы не можете редактировать свои сообщения
Вы не можете удалять свои сообщения
Вы не можете голосовать в опросах
Вы не можете прикреплять файлы к сообщениям
Вы можете скачивать файлы