Loading...
Error

Скачать Первый рыцарь / First Knight (Джерри Цукер) [1995, драма, мелодрама, приключения, BDRip] [720p] [FREEISLAND] торрент без регистрации

 
Статистика раздачи
Размер:  4,37 GB   |    Скачан:  156 раз
Сидов:  1  [  0 KB/s  ]  
 
Автор Сообщение

Marsianka

[] 

Первый рыцарь

First Knight




Год выпуска: 1995
Страна: США
Жанр: драма, мелодрама, приключения
Продолжительность: 02:13:50
Перевод:Профессиональный ( полное дублирование)

Режиссер: Джерри Цукер
Продюссер: Хант Лоури, Кэтрин Дж. МакДермотт, Джил Неттер
Сценарий: Лорн Кэмерон, Дэвид Хоселтон, Уильям Николсон

Бюджет: $75 000 000
Премьера в мире: 7 июля 1995

В ролях: Шон Коннери, Ричард Гир, Джулия Ормонд, Бен Кросс, Лиам Каннингэм, Кристофер Вилльерс, Валентин Пелка, Колин МакКормэк, Ралф Айнесон, Джон Гилгуд

Описание: Ланселот, воин без страха и упрека, прибыл в золотой замок Камелот, чтобы служить великому королю Артуру. Им предстоят грозные сражения, доблесть и слава.Но в Камелоте он находит женщину, без которой не может жить, но которой не в силах обладать прекрасную Гуиневеру Лионесскую. Она возлюбленная короля Артура, который защищает ее маленькое королевство от войск черного рыцаря Малаганта.И Первый Рыцарь Ланселот должен сделать выбор служить своему королю, или предать его во имя любимой...

Качество: BDRip 720p
Формат: MKV
Видео кодек: H.264
Аудио кодек: AC3
Видео: English, 4228 Кбит/сек, 1280*688 (1,860), в 23,976 кадр/сек, AVC (High@L4.1)
Аудио: Russian, 448 Кбит/сек, 48,0 КГц, 16 бит, 6 канала(ов), AC-3
Аудио:English ,320 Кбит/сек, 48,0 КГц, 16 бит, 6 канала(ов), AC-3| оригинал отдельно на народ.ру

Общее
Уникальный идентификатор : 238284990950749238114378506805331683766 (0xB344051A97816940BF9A09051D24E9B6)
Полное имя : E:торрентFirst Knight (1995) BDRip 720p.mkv
Формат : Matroska
Размер файла : 4,37 Гбайт
Продолжительность : 2 ч. 13 м.
Общий поток : 4675 Кбит/сек
Дата кодирования : UTC 2011-05-21 13:23:34
Программа кодирования : mkvmerge v4.7.0 ('Just Like You Imagined') built on Apr 21 2011 01:13:14
Библиотека кодирования : libebml v1.2.0 + libmatroska v1.1.0

Видео
Идентификатор : 1
Формат : AVC
Формат/Информация : Advanced Video Codec
Профиль формата : High@L4.1
Параметр CABAC формата : Да
Параметр ReFrames формата : 8 кадры
Идентификатор кодека : V_MPEG4/ISO/AVC
Продолжительность : 2 ч. 13 м.
Битрейт : 4228 Кбит/сек
Ширина : 1280 пикс.
Высота : 688 пикс.
Соотношение сторон : 1,860
Частота кадров : 23,976 кадр/сек
Цветовое пространство : YUV
Подвыборка цветности : 4:2:0
Битовая глубина : 8 бит
Тип развёртки : Прогрессивная
Бит/(Пиксели*Кадры) : 0.200
Размер потока : 3,86 Гбайт (88%)
Библиотека кодирования : x264 core 115 r1995 c1e60b9
Настройки программы : cabac=1 / ref=8 / deblock=1:-2:-2 / analyse=0x3:0x133 / me=umh / subme=7 / psy=1 / psy_rd=1.00:0.15 / mixed_ref=1 / me_range=32 / chroma_me=1 / trellis=2 / 8x8dct=1 / cqm=0 / deadzone=21,11 / fast_pskip=0 / chroma_qp_offset=-3 / threads=6 / sliced_threads=0 / nr=0 / decimate=1 / interlaced=0 / bluray_compat=0 / constrained_intra=0 / bframes=5 / b_pyramid=2 / b_adapt=1 / b_bias=0 / direct=1 / weightb=1 / open_gop=0 / weightp=2 / keyint=250 / keyint_min=24 / scenecut=40 / intra_refresh=0 / rc_lookahead=50 / rc=2pass / mbtree=1 / bitrate=4228 / ratetol=1.0 / qcomp=0.80 / qpmin=5 / qpmax=51 / qpstep=4 / cplxblur=20.0 / qblur=0.5 / ip_ratio=1.40 / aq=1:1.00
Язык : English

Аудио
Идентификатор : 2
Формат : AC-3
Формат/Информация : Audio Coding 3
Расширение режима : CM (complete main)
Идентификатор кодека : A_AC3
Продолжительность : 2 ч. 13 м.
Вид битрейта : Постоянный
Битрейт : 448 Кбит/сек
Канал(ы) : 6 канала(ов)
Расположение каналов : Front: L C R, Side: L R, LFE
Частота : 48,0 КГц
Битовая глубина : 16 бит
Метод сжатия : С потерями
Размер потока : 429 Мбайт (10%)
Язык : Russian

Меню
00:00:00.000 : en:00:00:00.000
00:09:44.876 : en:00:09:44.876
00:17:37.848 : en:00:17:37.848
00:23:41.629 : en:00:23:41.629
00:35:41.348 : en:00:35:41.348
00:39:03.424 : en:00:39:03.424
00:44:37.925 : en:00:44:37.925
00:52:44.536 : en:00:52:44.536
00:58:16.201 : en:00:58:16.201
01:07:06.439 : en:01:07:06.439
01:18:26.243 : en:01:18:26.243
01:27:07.472 : en:01:27:07.472
01:37:27.759 : en:01:37:27.759
01:46:03.232 : en:01:46:03.232
01:52:08.931 : en:01:52:08.931
01:58:32.647 : en:01:58:32.647
Релиз от:



Скачать Первый.рыцарь.First.Knight.(Джерри.Цукер).[1995.драма.мелодрама.приключения.BDRip].[720p].[FREEISLAND].torrent без регистрации
Золото ЗОЛОТАЯ РАЗДАЧА! СКАЧАННОЕ НЕ ЗАСЧИТЫВАЕТСЯ! Золото
Дата: Зарегистрирован   [ Тип: внутренний ] Как тут cкачать?
MAGNET ссылка
MAGNET ссылка


Скачать .torrent

22 KB

Статус: проверено DHT
Скачан: торрент - 156 раз, раздача полностью - 4 раз
Размер: 4,37 GB
Оценка:  - (Голосов: 0)
Поблагодарили: 0
Поделиться ссылкой на эту раздачу с друзьями:
В контактеFacebookОдноклассникиTwitterLivejournalМой МирLiveinternet
 

 
Показать сообщения:    


Вы не можете начинать темы
Вы не можете отвечать на сообщения
Вы не можете редактировать свои сообщения
Вы не можете удалять свои сообщения
Вы не можете голосовать в опросах
Вы не можете прикреплять файлы к сообщениям
Вы можете скачивать файлы