Loading...
Error

Скачать Немыслимое / Unthinkable (Грегор Джордан) [2009, триллер, драма, BDRip-AVC] [MVO] торрент без регистрации

 
Статистика раздачи
Размер:  2,18 GB   |    Скачан:  181 раз
Сидов:  1  [  0 KB/s  ]  
 
Автор Сообщение

МихаНЕзатор

[] 

Немыслимое / Unthinkable (2010) BDRip-AVC
от DHT-Movies

Информация о фильме
Название: Немыслимое
Оригинальное название: Unthinkable
Год выхода: 2009
Жанр: Триллер, драма
Режиссер: Грегор Джордан
В ролях: Сэмюэл Л. Джексон, Майкл Шин, Брэндон Рут, Кэрри-Энн Мосс, Стивен Рут, Джил Беллоуз, Некар Задеган, Мартин Донован, Яра Шахиди, Саша Ройз

О фильме:
Что будет, если военнослужащий американской армии примет ислам и заложит три ядерных заряда в крупнейших городах Америки? Как заставить его выдать места закладки до подрыва? Что делать, если террорист готов ко всему, что с ним могут сделать по закону?


Страна: США
Студия: ChubbCo Film
Продолжительность: 01:37:07
Перевод: Профессиональный |многоголосый|


Релиз от: | by ATi


Файл
Кодек: h.264
Качество: BDRip-AVC [рип с Blu-Ray 1080p]
Видео: h.264@L4.1, 1024x552 , 23.976 fps, ~2769 kbps avg, 0.200 bit/pixel.
Звук: 48 kHz, AC3 Dolby Digital, 3/2 (L,C,R,l,r) + LFE ch, ~448.00 kbps avg
Субтитры: Отсутствуют
x264 [info]: frame I:1318 Avg QP:16.29 size: 86386
x264 [info]: frame P:30457 Avg QP:19.26 size: 26777
x264 [info]: frame B:107953 Avg QP:21.99 size: 10062
x264 [info]: consecutive B-frames: 2.7% 1.3% 3.2% 33.8% 13.4% 34.3% 5.7% 5.7%
x264 [info]: mb I I16..4: 8.5% 74.0% 17.6%
x264 [info]: mb P I16..4: 1.0% 7.7% 0.8% P16..4: 33.6% 23.7% 14.0% 0.0% 0.0% skip:19.2%
x264 [info]: mb B I16..4: 0.1% 1.2% 0.0% B16..8: 44.3% 9.2% 3.4% direct: 4.3% skip:37.4% L0:45.0% L1:48.4% BI: 6.6%
x264 [info]: 8x8 transform intra:82.0% inter:60.7%
x264 [info]: coded y,uvDC,uvAC intra: 88.7% 50.7% 16.8% inter: 24.5% 11.0% 0.2%
x264 [info]: i16 v,h,dc,p: 45% 19% 9% 26%
x264 [info]: i8 v,h,dc,ddl,ddr,vr,hd,vl,hu: 11% 8% 10% 10% 13% 13% 13% 11% 12%
x264 [info]: i4 v,h,dc,ddl,ddr,vr,hd,vl,hu: 13% 8% 4% 10% 15% 14% 13% 11% 12%
x264 [info]: i8c dc,h,v,p: 46% 28% 18% 8%
x264 [info]: Weighted P-Frames: Y:2.8% UV:0.6%
x264 [info]: ref P L0: 47.8% 10.9% 18.9% 7.3% 6.2% 4.3% 4.3% 0.2% 0.0%
x264 [info]: ref B L0: 71.2% 14.2% 7.6% 4.2% 2.0% 0.9%
x264 [info]: ref B L1: 91.4% 8.6%
Format : Matroska
File size : 2.18 GiB
Duration : 1h 37mn
Overall bit rate : 3 217 Kbps
Writing application : mkvmerge v4.6.0 ('Still Crazy After All These Years') Ў‘ћ љђ ћў Apr 1 2011 21:01:49
Writing library : libebml v1.2.0 + libmatroska v1.1.0
Video #1
ID : 1
Format : AVC
Format/Info : Advanced Video Codec
Format profile : High@L4.1
Format settings, CABAC : Yes
Format settings, ReFrames : 7 frames
Muxing mode : Container profile=Unknown@4.1
Codec ID : V_MPEG4/ISO/AVC
Duration : 1h 37mn
Bit rate : 2 769 Kbps
Width : 1 024 pixels
Height : 552 pixels
Display aspect ratio : 1.855
Frame rate : 23.976 fps
Resolution : 24 bits
Colorimetry : 4:2:0
Scan type : Progressive
Bits/(Pixel*Frame) : 0.200
Stream size : 1.83 GiB (84%)
Writing library : x264 core 115 r1937 aa21558
Encoding settings : cabac=1 / ref=7 / deblock=1:-2:-2 / analyse=0x3:0x113 / me=umh / subme=9 / psy=1 / psy_rd=1.00:0.00 / mixed_ref=1 / me_range=32 / chroma_me=1 / trellis=2 / 8x8dct=1 / cqm=0 / deadzone=21,11 / fast_pskip=1 / chroma_qp_offset=-2 / threads=6 / sliced_threads=0 / nr=0 / decimate=1 / interlaced=0 / bluray_compat=0 / constrained_intra=0 / bframes=7 / b_pyramid=2 / b_adapt=2 / b_bias=0 / direct=1 / weightb=1 / open_gop=0 / weightp=2 / keyint=250 / keyint_min=23 / scenecut=40 / intra_refresh=0 / rc_lookahead=40 / rc=2pass / mbtree=1 / bitrate=2769 / ratetol=1.0 / qcomp=0.60 / qpmin=0 / qpmax=69 / qpstep=4 / cplxblur=20.0 / qblur=0.5 / ip_ratio=1.40 / aq=1:1.00
Audio #2
ID : 2
Format : AC-3
Format/Info : Audio Coding 3
Codec ID : A_AC3
Duration : 1h 37mn
Bit rate mode : Constant
Bit rate : 448 Kbps
Channel(s) : 6 channels
Channel positions : Front: L C R, Surround: L R, LFE
Sampling rate : 48.0 KHz
Stream size : 311 MiB (14%)



Скачать Немыслимое.Unthinkable.(Грегор.Джордан).[2009.триллер.драма.BDRip-AVC].[MVO].torrent без регистрации
Золото ЗОЛОТАЯ РАЗДАЧА! СКАЧАННОЕ НЕ ЗАСЧИТЫВАЕТСЯ! Золото
Дата: Зарегистрирован   [ Тип: внутренний ] Как тут cкачать?
MAGNET ссылка
MAGNET ссылка


Скачать .torrent

11 KB

Статус: проверено DHT
Скачан: торрент - 181 раз, раздача полностью - 87 раз
Размер: 2,18 GB
Оценка:  5 (Голосов: 2)
Поблагодарили: 3
Поделиться ссылкой на эту раздачу с друзьями:
В контактеFacebookОдноклассникиTwitterLivejournalМой МирLiveinternet
 

 

[] 

Топик был перенесен из форума Фильмы 2010 года в форум Фильмы 2009 года

Shara
 
Показать сообщения:    


Вы не можете начинать темы
Вы не можете отвечать на сообщения
Вы не можете редактировать свои сообщения
Вы не можете удалять свои сообщения
Вы не можете голосовать в опросах
Вы не можете прикреплять файлы к сообщениям
Вы можете скачивать файлы