Loading...
Error

Скачать Арена / The Arena (Стив Карвер /Steve Carver/, Джо ДАмато /Joe D'Amato) [1974, Приключения, Боевик, История, DVDRip] [AVC] торрент без регистрации

 
Статистика раздачи
Размер:  1,36 GB   |    Скачан:  157 раз
Сидов:  1  [  0 KB/s  ]  
 
Автор Сообщение

Marsianka

[] 

Арена / The Arena /1974/ AVC

Информация о фильме:

Название: Арена / Обнаженные гладиаторши
Оригинальное: The Arena / La rivolta delle gladiatrici / Naked Warriors
Год выхода: 1974
Жанр: Приключения, Боевик, История



Режиссеры: Стив Карвер /Steve Carver/, Джо ДАмато /Joe D'Amato/
Сценаристы: Джон Уильям Коррингтон /John William Corrington/, Джойс Хупер Коррингтон /Joyce Hooper Corrington/
Оператор: Джо ДАмато /Joe D'Amato/
Композитор: Франческо Де Мази /Francesco De Masi/



В фильме снимались:
Маргарет Марков - Margaret Markov Bodicia
Пэм Гриер - Pam Grier Mamawi
Лукреция Лав - Lucretia Love Deirdre
Пауль Мюллер - Paul Muller Lucilius
Даниэле Варгас - Daniele Vargas Timarchus
Мари Луиз - Marie Louise Livia
Мэри Кант - Mary Count Lucinia
Розальба Нери - Rosalba Neri Cornelia
Вассили Керис - Vassili Karis Marcus
Сид Лоуренс - Sid Lawrence Priscium
Миммо Пальмара - Mimmo Palmara Rufinius
Антонио Казале - Antonio Casale Lucan
Франко Гарофало - Franco Garofalo Aemilius
Пьетро Чеккарелли - Pietro Ceccarelli Septimus
Джо Дженкинс - Jho Jhenkins Quintus
и другие...



Описание: Рим 2000 лет назад. Жестокие и простые нравы: если хочешь жить убей врага и забери его оружие себе. В этом фильме мы столкнемся с необычным, но очень красивым зрелищем: женщины-гладиаторы в почти обнаженном виде сражаются друг с другом и с гладиаторами-мужчинами за свою честь и свободу



Страна:
Выпущено: New World Pictures, Rover Film
Продолжительность: 01:22:05
Перевод: Профессиональный, многоголосый (закадровый)
Субтитры: Нет









Format : MPEG-4
Format profile : Base Media
Codec ID : isom
File size : 1.36 GiB
Duration : 1h 22mn
Overall bit rate : 2 372 Kbps
Encoded date : UTC 2010-12-05 15:29:35
Tagged date : UTC 2010-12-05 15:29:35

Video
ID : 1
Format : AVC
Format/Info : Advanced Video Codec
Format profile : High@L4.1
Format settings, CABAC : Yes
Format settings, ReFrames : 4 frames
Codec ID : avc1
Codec ID/Info : Advanced Video Coding
Duration : 1h 22mn
Bit rate mode : Variable
Bit rate : 2 172 Kbps
Maximum bit rate : 4 521 Kbps
Width : 736 pixels
Height : 552 pixels
Display aspect ratio : 4:3
Frame rate mode : Constant
Frame rate : 25.000 fps
Color space : YUV
Chroma subsampling : 4:2:0
Bit depth : 8 bits
Scan type : Progressive
Bits/(Pixel*Frame) : 0.214
Stream size : 1.25 GiB (92%)
Title : Imported with GPAC 0.4.6-DEV (build 1)
Writing library : x264 core 92 r1510 33d382a
Encoding settings : cabac=1 / ref=1 / deblock=1:-1:-1 / analyse=0x3:0x3 / me=dia / subme=1 / psy=1 / psy_rd=0.00:0.00 / mixed_ref=0 / me_range=16 / chroma_me=1 / trellis=0 / 8x8dct=1 / cqm=0 / deadzone=21,11 / fast_pskip=1 / chroma_qp_offset=0 / threads=1 / sliced_threads=0 / nr=0 / decimate=1 / interlaced=0 / constrained_intra=0 / bframes=3 / b_pyramid=2 / b_adapt=1 / b_bias=0 / direct=1 / wpredb=1 / wpredp=0 / keyint=250 / keyint_min=25 / scenecut=40 / intra_refresh=0 / rc=abr / mbtree=0 / bitrate=2172 / ratetol=1.0 / qcomp=0.60 / qpmin=10 / qpmax=51 / qpstep=4 / ip_ratio=1.40 / pb_ratio=1.30 / aq=1:1.00
Encoded date : UTC 2010-12-05 15:29:35
Tagged date : UTC 2010-12-05 15:33:26

Audio
ID : 2
Format : AAC
Format/Info : Advanced Audio Codec
Format profile : LC
Codec ID : 40
Duration : 1h 22mn
Bit rate mode : Variable
Bit rate : 192 Kbps
Maximum bit rate : 207 Kbps
Channel(s) : 2 channels
Channel positions : Front: L R
Sampling rate : 48.0 KHz
Compression mode : Lossy
Stream size : 113 MiB (8%)
Encoded date : UTC 2010-12-05 15:33:08
Tagged date : UTC 2010-12-05 15:33:26


Качество: DVDRip-AVC /Исходник DVD5/
Формат: MKV
Видео кодек: x264
Аудио кодек: AAC
Видео: MPEG4 Video (H264) 736x552, 25.00fps, ~2171 kbps avg, 0.21 bit/pixel
Аудио: AAC, 192kbps, 2 channels, 16bit, 48000khz /Многоголосый/

Автор рипа: С.Карпов






Скачать Арена.The.Arena.(Стив.Карвер.Steve.Carver.Джо.ДАмато.Joe.D'Amato).[1974.Приключения.Боевик.История.DVDRip].[AVC].torrent без регистрации
Золото ЗОЛОТАЯ РАЗДАЧА! СКАЧАННОЕ НЕ ЗАСЧИТЫВАЕТСЯ! Золото
Дата: Зарегистрирован   [ Тип: внутренний ] Как тут cкачать?
MAGNET ссылка
MAGNET ссылка


Скачать .torrent

14 KB

Статус: проверено DHT
Скачан: торрент - 157 раз, раздача полностью - 18 раз
Размер: 1,36 GB
Оценка:  - (Голосов: 0)
Поблагодарили: 1
Поделиться ссылкой на эту раздачу с друзьями:
В контактеFacebookОдноклассникиTwitterLivejournalМой МирLiveinternet
 

 
Показать сообщения:    


Вы не можете начинать темы
Вы не можете отвечать на сообщения
Вы не можете редактировать свои сообщения
Вы не можете удалять свои сообщения
Вы не можете голосовать в опросах
Вы не можете прикреплять файлы к сообщениям
Вы можете скачивать файлы