Loading...
Error

Скачать Суженый-ряженый (Дмитрий Иосифов) [2007, Комедия, Мелодрама, DVDRip-AVC] торрент без регистрации

 
Статистика раздачи
Размер:  1,44 GB   |    Скачан:  194 раза
Сидов:  1  [  0 KB/s  ]  
 
Автор Сообщение

Marsianka

[] 

Суженый-ряженый /2007/ AVC

Информация о фильме:

Название: Суженый-ряженый
Год выхода: 2007
Жанр: Комедия, Мелодрама



Режиссер: Дмитрий Иосифов
Сценаристы: Дмитрий Миропольский, Илья Тилькин
Оператор: Юрий Шайгарданов



В фильме снимались:
Мария Порошина - Ольга Кирсанова
Алексей Макаров - Федор Бондарев
Инга Стрелкова-Оболдина - Лера
Карэн Бадалов - Лева
Сергей Астахов - Эдуард Гусаров
Ксения Раппопорт - Ольга Гусарова, жена Эдика
Александр Феклистов - таксист Димыч
Сергей Мигицко - доктор
Юрий Ицков - капитан милиции
Сергей Бызгу - Боря
Сергей Козик - прапорщик Денисов
Михаил Евланов - Витек, мл.сержант милиции
и другие...



Описание: Когда-то Ольге нагадали, что своего суженого она встретит под Новый год. Разочаровавшись в романе с Эдиком, который появился на пороге ее дома в новогоднюю ночь, она больше никому не верит, решительно меняет все в своей жизни стиль, работу, квартиру. Пока Ольга избавляется от неприятных воспоминаний прошлого, ангелы не остаются без дела, они вершат судьбы своих подопечных. В очередной предновогодний вечер у Ольги на пороге появляется незваный и довольно настырный гость с далекого Севера. С этого момента (не без помощи ангелов) Новый год для Ольги и других героев фильма превращается в череду невероятных событий



Страна:
Выпущено: Студия Черепаха
Продолжительность: 01:30:50
Субтитры: Нет







Format : MPEG-4
Format profile : Base Media
Codec ID : isom
File size : 1.44 GiB
Duration : 1h 30mn
Overall bit rate : 2 276 Kbps
Encoded date : UTC 2011-01-13 13:00:08
Tagged date : UTC 2011-01-13 13:00:08

Video
ID : 1
Format : AVC
Format/Info : Advanced Video Codec
Format profile : High@L3.0
Format settings, CABAC : Yes
Format settings, ReFrames : 4 frames
Codec ID : avc1
Codec ID/Info : Advanced Video Coding
Duration : 1h 30mn
Bit rate mode : Variable
Bit rate : 1 828 Kbps
Nominal bit rate : 1 843 Kbps
Maximum bit rate : 7 732 Kbps
Width : 784 pixels
Height : 424 pixels
Display aspect ratio : 16:9
Frame rate mode : Constant
Frame rate : 25.000 fps
Resolution : 24 bits
Colorimetry : 4:2:0
Scan type : Progressive
Bits/(Pixel*Frame) : 0.220
Stream size : 1.16 GiB (80%)
Title : Imported with GPAC 0.4.6-DEV (build 1)
Writing library : x264 core 92 r1510 33d382a
Encoding settings : cabac=1 / ref=1 / deblock=1:0:0 / analyse=0x3:0x3 / me=dia / subme=1 / psy=1 / psy_rd=0.00:0.00 / mixed_ref=0 / me_range=16 / chroma_me=1 / trellis=0 / 8x8dct=1 / cqm=0 / deadzone=21,11 / fast_pskip=1 / chroma_qp_offset=0 / threads=1 / sliced_threads=0 / nr=0 / decimate=1 / interlaced=0 / constrained_intra=0 / bframes=3 / b_pyramid=2 / b_adapt=1 / b_bias=0 / direct=1 / wpredb=1 / wpredp=0 / keyint=250 / keyint_min=25 / scenecut=40 / intra_refresh=0 / rc=abr / mbtree=0 / bitrate=1843 / ratetol=1.0 / qcomp=0.60 / qpmin=10 / qpmax=51 / qpstep=4 / ip_ratio=1.40 / pb_ratio=1.30 / aq=1:1.00
Encoded date : UTC 2011-01-13 13:00:08
Tagged date : UTC 2011-01-13 13:03:11

Audio
ID : 2
Format : AAC
Format/Info : Advanced Audio Codec
Format version : Version 4
Format profile : LC
Format settings, SBR : No
Codec ID : 40
Duration : 1h 30mn
Bit rate mode : Variable
Bit rate : 443 Kbps
Maximum bit rate : 567 Kbps
Channel(s) : 6 channels
Channel positions : Front: L C R, Rear: L R, LFE
Sampling rate : 48.0 KHz
Resolution : 16 bits
Stream size : 288 MiB (19%)
Encoded date : UTC 2011-01-13 13:02:37
Tagged date : UTC 2011-01-13 13:03:11


Качество: DVDRip-AVC /Исходник DVD5/
Формат: MKV
Видео кодек: x264
Аудио кодек: AAC
Видео: MPEG4 Video (H264) 784x424, 25.00fps, ~1828 kbps avg, 0.22 bit/pixel
Аудио: AAC, 448kbps, 6 channels, 16bit, 48000khz




Скачать Суженый-ряженый.(Дмитрий.Иосифов).[2007.Комедия.Мелодрама.DVDRip-AVC].torrent без регистрации
Золото ЗОЛОТАЯ РАЗДАЧА! СКАЧАННОЕ НЕ ЗАСЧИТЫВАЕТСЯ! Золото
Дата: Зарегистрирован   [ Тип: внутренний ] Как тут cкачать?
MAGNET ссылка
MAGNET ссылка


Скачать .torrent

15 KB

Статус: проверено DHT
Скачан: торрент - 194 раз, раздача полностью - 117 раз
Размер: 1,44 GB
Оценка:  - (Голосов: 0)
Поблагодарили: 2
Поделиться ссылкой на эту раздачу с друзьями:
В контактеFacebookОдноклассникиTwitterLivejournalМой МирLiveinternet
 

 
Показать сообщения:    


Вы не можете начинать темы
Вы не можете отвечать на сообщения
Вы не можете редактировать свои сообщения
Вы не можете удалять свои сообщения
Вы не можете голосовать в опросах
Вы не можете прикреплять файлы к сообщениям
Вы можете скачивать файлы