Loading...
Error

Скачать Дитя моды: Убийство Кэролайн Берн / A Model Daughter: The Killing of Caroline Byrne (Тони Тилс / Tony Tilse) [2009, драма, HDTVRip] торрент без регистрации

 
Статистика раздачи
Размер:  1,37 GB   |    Скачан:  132 раза
Сидов:  1  [  0 KB/s  ]  
 
Автор Сообщение

МихаНЕзатор

[] 

Дитя моды: Убийство Кэролайн Берн / A Model Daughter: The Killing of Caroline Byrne


Страна: Австралия
Жанр: драма
Год выпуска: 2009
Продолжительность: 01:33:07

Перевод: Профессиональный (многоголосый закадровый)
Cубтитры: нет
Режиссер: Тони Тилс / Tony Tilse

В ролях: Гарри МакДональд, Дэвид Лайонс, Кариба Хейн, Тириел Мора, Гайтон Грантли, Хезер Митчелл, Терри Серио, Льюис Фиц-Джералд, Индиана Эванс, Кайли Уотсон.

Описание: Фильм о трагической жизни Кэролайн Берн, о её взаимоотношениях со своим парнем Гордоном Вудом и бизнесменом Рином Ривкиным.

Сэмпл


Качество видео: HDTVRip
Формат видео: AVI

Видео: 720x400 (1.80:1), 25 fps, XviD build 50 ~1647 kbps avg, 0.23 bit/pixel
Аудио: 48 kHz, AC3 Dolby Digital, 2/0 (L,R) ch, ~448.00 kbps avg
6.7/10 (73 votes)

Общее
Полное имя : E:\DLJA_TORRENT_FILM\A.Model.Daughter.The.Killing.of.Caroline.Byrne.2009.HDTVRip.avi
Формат : AVI
Формат/Информация : Audio Video Interleave
Размер файла : 1,37 Гбайт
Продолжительность : 1 ч. 33 м.
Общий поток : 2106 Кбит/сек
Программа кодирования : VirtualDubMod 1.5.10.2 (build 2540/release)
Библиотека кодирования : VirtualDubMod build 2540/release

Видео
Идентификатор : 0
Формат : MPEG-4 Visual
Профиль формата : Advanced Simple@L5
Параметр BVOP формата : 1
Параметр QPel формата : Нет
Параметр GMC формата : Без точки перехода
Параметр матрицы формата : Default (MPEG)
Идентификатор кодека : XVID
Идентификатор кодека/Подсказка : XviD
Продолжительность : 1 ч. 33 м.
Битрейт : 1648 Кбит/сек
Ширина : 720 пикс.
Высота : 400 пикс.
Соотношение сторон : 16:9
Частота кадров : 25,000 кадр/сек
Цветовое пространство : YUV
Подвыборка цветности : 4:2:0
Битовая глубина : 8 бит
Тип развёртки : Прогрессивная
Метод сжатия : С потерями
Бит/(Пиксели*Кадры) : 0.229
Размер потока : 1,07 Гбайт (78%)
Библиотека кодирования : XviD 1.2.1 (UTC 2008-12-04)

Аудио
Идентификатор : 1
Формат : AC-3
Формат/Информация : Audio Coding 3
Расширение режима : CM (complete main)
Идентификатор кодека : 2000
Продолжительность : 1 ч. 33 м.
Вид битрейта : Постоянный
Битрейт : 448 Кбит/сек
Канал(ы) : 2 канала(ов)
Расположение каналов : Front: L R
Частота : 48,0 КГц
Битовая глубина : 16 бит
Метод сжатия : С потерями
Размер потока : 298 Мбайт (21%)
Выравнивание : Разделение по промежуткам
Продолжительность промежутка : 40 мс. (1,00 видеокадр)
Время предзагрузки промежутка : 500 ms



Скачать Дитя.моды.Убийство.Кэролайн.Берн.A.Model.Daughter.The.Killing.of.Caroline.Byrne.(Тони.Тилс.Tony.Tilse).[2009.драма.HDTVRip].torrent без регистрации
Золото ЗОЛОТАЯ РАЗДАЧА! СКАЧАННОЕ НЕ ЗАСЧИТЫВАЕТСЯ! Золото
Дата: Зарегистрирован   [ Тип: внутренний ] Как тут cкачать?
MAGNET ссылка
MAGNET ссылка


Скачать .torrent

7 KB

Статус: проверено DHT
Скачан: торрент - 132 раз, раздача полностью - 15 раз
Размер: 1,37 GB
Оценка:  5 (Голосов: 1)
Поблагодарили: 1
Поделиться ссылкой на эту раздачу с друзьями:
В контактеFacebookОдноклассникиTwitterLivejournalМой МирLiveinternet
 

 
Показать сообщения:    


Вы не можете начинать темы
Вы не можете отвечать на сообщения
Вы не можете редактировать свои сообщения
Вы не можете удалять свои сообщения
Вы не можете голосовать в опросах
Вы не можете прикреплять файлы к сообщениям
Вы можете скачивать файлы