Loading...
Error

Скачать Дикая охота / The Wild Hunt (Александр Франчи / Alexandre Franchi) [2009, триллер, драма, DVDRip] торрент без регистрации

 
Статистика раздачи
Размер:  699 MB   |    Скачан:  112 раз
Сидов:  1  [  0 KB/s  ]  
 
Автор Сообщение

МихаНЕзатор

[] 

Дикая охота / The Wild Hunt

Страна: Канада
Жанр: триллер, драма
Год выпуска: 2009
Продолжительность: 01:45:35

Перевод: Субтитры (SubWay Проjект)
Cубтитры: русские
Оригинальная аудиодорожка: английский

Режиссер: Александр Франчи / Alexandre Franchi

В ролях: Рики Мейб, Марк Энтони Крупа, Тревор Хэйес, Каньехтио Хорн, Кент МакКвейд, Claudia Jurt, Николас Райт, Кайл Гейтхаус, Терри Симпсон и др.

Описание: Реконструкция средневековой игры превращается в шекспировскую трагедию, когда вмешивается посторонний человек, чтобы вернуть свою подругу.

Доп. информация:

IMDB 6.1
Кинопоиск 7.5

Создание субтитров



Качество видео: DVDRip
Формат видео: AVI

Видео: 624 x 352 (16:9), 23.976 fps, XviD MPEG-4, 881 kbps avg
Аудио: [English] MP3, 48.0 KHz, 128 kbps, 2 channels
Формат субтитров: softsub (SRT)

D:\Downloads\Torrents\The_Wild_Hunt_2009\The_Wild_Hunt.avi
General
Complete name : D:\Downloads\Torrents\The_Wild_Hunt_2009\The_Wild_Hunt.avi
Format : AVI
Format/Info : Audio Video Interleave
File size : 699 MiB
Duration : 1h 35mn
Overall bit rate : 1 020 Kbps
Writing application : Nandub v1.0rc2
Writing library : Nandub build 1852/release
Video #0
ID : 0
Format : MPEG-4 Visual
Format profile : Simple@L3
Format settings, BVOP : Yes
Format settings, QPel : No
Format settings, GMC : No warppoints
Format settings, Matrix : Default (MPEG)
Muxing mode : Packed bitstream
Codec ID : XVID
Codec ID/Hint : XviD
Duration : 1h 35mn
Bit rate : 881 Kbps
Width : 624 pixels
Height : 352 pixels
Display aspect ratio : 16:9
Frame rate : 23.976 fps
Resolution : 24 bits
Colorimetry : 4:2:0
Scan type : Progressive
Bits/(Pixel*Frame) : 0.167
Stream size : 603 MiB (86%)
Writing library : XviD 1.0.3 (UTC 2004-12-20)
Audio #1
ID : 1
Format : MPEG Audio
Format version : Version 1
Format profile : Layer 3
Codec ID : 55
Codec ID/Hint : MP3
Duration : 1h 35mn
Bit rate mode : Variable
Bit rate : 127 Kbps
Nominal bit rate : 128 Kbps
Channel(s) : 2 channels
Sampling rate : 48.0 KHz
Resolution : 16 bits
Stream size : 86.9 MiB (12%)
Alignment : Aligned on interleaves
Interleave, duration : 24 ms (0.58 video frame)
Interleave, preload duration : 139 ms
Writing library : LAME3.90.
Encoding settings : -m j -V 4 -q 2 -lowpass 17.6 --abr 128



Скачать Дикая.охота.The.Wild.Hunt.(Александр.Франчи.Alexandre.Franchi).[2009.триллер.драма.DVDRip].torrent без регистрации
Золото ЗОЛОТАЯ РАЗДАЧА! СКАЧАННОЕ НЕ ЗАСЧИТЫВАЕТСЯ! Золото
Дата: Зарегистрирован   [ Тип: внутренний ] Как тут cкачать?
MAGNET ссылка
MAGNET ссылка


Скачать .torrent

14 KB

Статус: проверено DHT
Скачан: торрент - 112 раз, раздача полностью - 2 раз
Размер: 699 MB
Оценка:  5 (Голосов: 1)
Поблагодарили: 0
Поделиться ссылкой на эту раздачу с друзьями:
В контактеFacebookОдноклассникиTwitterLivejournalМой МирLiveinternet
 

 
Показать сообщения:    


Вы не можете начинать темы
Вы не можете отвечать на сообщения
Вы не можете редактировать свои сообщения
Вы не можете удалять свои сообщения
Вы не можете голосовать в опросах
Вы не можете прикреплять файлы к сообщениям
Вы можете скачивать файлы