Loading...
Error

Скачать 3 сезона в аду / 3 sezony v pekle / 3 Seasons in Hell (Томаш Машин / Tomas Masin) [2009, драма, исторический, биографический, DVDRip] торрент без регистрации

 
Статистика раздачи
Размер:  1,41 GB   |    Скачан:  125 раз
Сидов:  1  [  0 KB/s  ]  
 
Автор Сообщение

МихаНЕзатор

[] 

3 сезона в аду / 3 sezony v pekle / 3 Seasons in Hell
Год выпуска: 2009
Страна: Чехия, Словакия, Германия
Жанр: Драма, исторический, биографический
Перевод: Любительский (многоголосый закадровый) RG.paravozik
Продолжительность: 01:51:07
Cубтитры: нет
Режиссер: Томаш Машин / Tomas Masin
В ролях: Криштоф Гадек, Каролина Грушка, Мартин Губа, Ян Краус, Томаш Тындык,
Михал Дворчик, Лубош Костельный, Таня Паугофова, Мирослав Кробот, Матей Рупперт,
Кристина Яначкова, Иржи Бабек, Андреа Керестешова, Ева Маталова, Гана Сайдлова,
Давид Стайгервальд, Иржи Черный, Иржи Коут.
Описание: Чехословакия. С момента окончания Второй мировой войны прошло всего два года.
Никто и не догадывается, что через год в стране произойдет коммунистический переворот,
начнутся политические репрессии, будет проведена национализация имущества, закрыты
государственные границы. 17-летний Иван Гайнц бросает школу и решает вести богемный образ
жизни. Он поэт, марксист и борец с мещанским образом жизни. Иван уходит из родительского дома,
от отца - бывшего офицера, и знакомится с Яной. Яна - из буржуазной семьи, ее дед бывший
стоматолог президента, родители погибли во время войны, и Яна получила наследство, на которое
живет. Знакомство переходит в бурный роман. Но вот наступает 1948 год, власть в стране
захватывают коммунисты. Иван понимает, что его иллюзии о марксизме и власти рабочего класса
не имеют ничего общего с реальностью. Вместе с Яной он решает бежать во Францию.
Но для этого ему нужны деньги...
Фильм снят по автобиографической повести чехословацкого поэта и философа Эгона Бонди
и стал самой дорогой картиной в истории чешского кинематографа.
Релиз:


Качество видео: DVDRip
Формат видео: AVI
Видео: XviD; 688x288 (2.39:1), 25 fps, XviD MPEG-4 ~1428 kbps avg, 0.29 bit/pixel
Аудио: AC3; 48,0 КГц; 384 Кбит/сек; 6ch (Front: L C R, Side: L R, LFE)

Перевод и Редакция - abbbd
Сведение и Мастеринг - _parovoz_
Закадровый текст - NEMIROFF_; Sonyks; Скетчер

C:\3_Sezona_v_Adu.2009.DVDRip.RG.paravozik.avi
General
Complete name : C:\3_Sezona_v_Adu.2009.DVDRip.RG.paravozik.avi
Format : AVI
Format/Info : Audio Video Interleave
File size : 1.41 GiB
Duration : 1h 51mn
Overall bit rate : 1 818 Kbps
Writing application : Nandub v2.01 The advanced compression technology is developed by Neiromaster
Writing library : Nandub 2.01 modified by Neiromaster
Video #0
ID : 0
Format : MPEG-4 Visual
Format profile : Advanced Simple@L5
Format settings, BVOP : Yes
Format settings, QPel : Yes
Format settings, GMC : 3 warppoints
Format settings, Matrix : Default (H.263)
Muxing mode : Packed bitstream
Codec ID : XVID
Codec ID/Hint : XviD
Duration : 1h 51mn
Bit rate : 1 428 Kbps
Width : 688 pixels
Height : 288 pixels
Display aspect ratio : 2.35:1
Frame rate : 25.000 fps
Resolution : 8 bits
Colorimetry : 4:2:0
Scan type : Progressive
Bits/(Pixel*Frame) : 0.288
Stream size : 1.11 GiB (79%)
Writing library : XviD 1.2.1 (UTC 2008-12-04)
Audio #1
ID : 1
Format : AC-3
Format/Info : Audio Coding 3
Codec ID : 2000
Duration : 1h 51mn
Bit rate mode : Constant
Bit rate : 384 Kbps
Channel(s) : 6 channels
Channel positions : Front: L C R, Surround: L R, LFE
Sampling rate : 48.0 KHz
Stream size : 305 MiB (21%)
Alignment : Split accross interleaves
Interleave, duration : 200 ms (5.00 video frames)
Interleave, preload duration : 200 ms



Скачать 3.сезона.в.аду.3.sezony.v.pekle.3.Seasons.in.Hell.(Томаш.Машин.Tomas.Masin).[2009.драма.исторический.биографический.DVDRip].torrent без регистрации
Золото ЗОЛОТАЯ РАЗДАЧА! СКАЧАННОЕ НЕ ЗАСЧИТЫВАЕТСЯ! Золото
Дата: Зарегистрирован   [ Тип: внутренний ] Как тут cкачать?
MAGNET ссылка
MAGNET ссылка


Скачать .torrent

15 KB

Статус: проверено DHT
Скачан: торрент - 125 раз, раздача полностью - 25 раз
Размер: 1,41 GB
Оценка:  5 (Голосов: 1)
Поблагодарили: 0
Поделиться ссылкой на эту раздачу с друзьями:
В контактеFacebookОдноклассникиTwitterLivejournalМой МирLiveinternet
 

 
Показать сообщения:    


Вы не можете начинать темы
Вы не можете отвечать на сообщения
Вы не можете редактировать свои сообщения
Вы не можете удалять свои сообщения
Вы не можете голосовать в опросах
Вы не можете прикреплять файлы к сообщениям
Вы можете скачивать файлы