Loading...
Error

Скачать Пастырь: Битва за души / Older Than America (жорджина Лайтнинг) [2008, драма, DVDRip] [Лицензия] торрент без регистрации

 
Статистика раздачи
Размер:  1,46 GB   |    Скачан:  209 раз
Сидов:  1  [  0 KB/s  ]  
 
Автор Сообщение

МихаНЕзатор

[] 

Пастырь: Битва за души
/ Older Than America Год выпуска: 2008
Страна: США
Киностудия: Older Than America
Жанр: драма
Продолжительность: 01:37:44
Перевод: Профессиональный (многоголосый) лицензия
Cубтитры: нет
Оригинальная аудиодорожка: нет

Режиссер: Джорджина Лайтнинг / Georgina Lightning

В ролях: Сара Эгнью, Джери Арредондо, Noah Kol Balfour, Дэннис Бэнкс, Адам Бич, Рэйвен Беллефло, Марк Беннингхоффен, Роуз Беренс, Jennifer Blagen, Танту Кардинал...

Описание: Женщину преследуют страшные видения, которые происходили в школе-интернате, где учились дети индейцев.


Бюджет: $1 000 000

Тип релиза: DVDRip, источник: DVD9 R5 (спасибо )
Контейнер: AVI

Видео: 720x400 (16:9), 25.000 fps, XviD MPEG-4 ~1680 kbps avg, 0.233 bit/pixel
Аудио: 48 kHz, АС3, 6 ch, 448.00 kbps Constant

Общее
Полное имя : Pastir.bitva.za.dushi.2008.P.DVDRip.1.46GB.avi
Формат : AVI
Формат/Информация : Audio Video Interleave
Размер файла : 1,46 Гбайт
Продолжительность : 1 ч. 37 м.
Общий поток : 2138 Кбит/сек
Программа кодирования : VirtualDubMod 1.5.10.3 | www.virtualdub-fr.org || (build 2550/release)
Библиотека кодирования : VirtualDubMod build 2550/release

Видео
Идентификатор : 0
Формат : MPEG-4 Visual
Профиль формата : Advanced Simple@L5
Параметр BVOP формата : 1
Параметр QPel формата : Нет
Параметр GMC формата : Без точки перехода
Параметр матрицы формата : Выборочная
Идентификатор кодека : MP4V
Идентификатор кодека/Информация : Apple QuickTime MPEG-4 native
Продолжительность : 1 ч. 37 м.
Битрейт : 1680 Кбит/сек
Ширина : 720 пикс.
Высота : 400 пикс.
Соотношение сторон : 16:9
Частота кадров : 25,000 кадр/сек
Цветовое пространство : YUV
Подвыборка цветности : 4:2:0
Битовая глубина : 8 бит
Тип развёртки : Прогрессивная
Метод сжатия : С потерями
Бит/(Пиксели*Кадры) : 0.233
Размер потока : 1,15 Гбайт (79%)
Библиотека кодирования : XviD 1.2.1 (UTC 2008-12-04)

Аудио
Идентификатор : 1
Формат : AC-3
Формат/Информация : Audio Coding 3
Расширение режима : CM (complete main)
Идентификатор кодека : 2000
Продолжительность : 1 ч. 37 м.
Вид битрейта : Постоянный
Битрейт : 448 Кбит/сек
Каналы : 6 каналов
Расположение каналов : Front: L C R, Side: L R, LFE
Частота : 48,0 КГц
Битовая глубина : 16 бит
Метод сжатия : С потерями
Размер потока : 313 Мбайт (21%)
Выравнивание : Разделение по промежуткам
Продолжительность промежутка : 40 мс. (1,00 видеокадр)
Время предзагрузки промежутка : 500 ms



Скачать Пастырь.Битва.за.души.Older.Than.America.(жорджина.Лайтнинг).[2008.драма.DVDRip].[Лицензия].torrent без регистрации
Золото ЗОЛОТАЯ РАЗДАЧА! СКАЧАННОЕ НЕ ЗАСЧИТЫВАЕТСЯ! Золото
Дата: Зарегистрирован   [ Тип: внутренний ] Как тут cкачать?
MAGNET ссылка
MAGNET ссылка


Скачать .torrent

30 KB

Статус: проверено DHT
Скачан: торрент - 209 раз, раздача полностью - 196 раз
Размер: 1,46 GB
Оценка:  5 (Голосов: 2)
Поблагодарили: 1
Поделиться ссылкой на эту раздачу с друзьями:
В контактеFacebookОдноклассникиTwitterLivejournalМой МирLiveinternet
 

 

Albibek

[] 

Ещё один Пластырь! ag
 

leon030982

[] 

Бюджет: $1 000 000 ag ag ag ag
 
Показать сообщения:    


Вы не можете начинать темы
Вы не можете отвечать на сообщения
Вы не можете редактировать свои сообщения
Вы не можете удалять свои сообщения
Вы не можете голосовать в опросах
Вы не можете прикреплять файлы к сообщениям
Вы можете скачивать файлы