Loading...
Error

Скачать Политех / Polytechnique (Дени Вильнёв / Denis Villeneuve) [2009, драма, криминал, история, DVDRip] торрент без регистрации

 
Статистика раздачи
Размер:  1,37 GB   |    Скачан:  120 раз
Сидов:  1  [  0 KB/s  ]  
 
Автор Сообщение

МихаНЕзатор

[] 

Политех / Polytechnique
Год выпуска: 2009
Страна: Канада

Жанр: драма, криминал, история
Продолжительность: 01:17:03
Перевод: Субтитры
Cубтитры: русские (d0ber.maNN)

Режиссер: Дени Вильнёв / Denis Villeneuve
Сценарий: Jacques Davidts
Продюсер: Дон Кармоди / Don Carmody, Андре Руле / André Rouleau, Максим Ремиллар / Maxime Rémillard, Карин Ванасс / Karine Vanasse, Натали Бриджитт Бустос / Nathalie Brigitte Bustos
Оператор: Пьер Жиль / Pierre Gill
Композитор: Бенуа Чарест / Benoît Charest

В ролях: Максим Годетт (The Killer), Sébastien Huberdeau (Jean-François), Карин Ванасс (Valérie), Martin Watier (Jean-François, озвучка), Эвелин Брошу (Stéphanie), Жоанн-Мари Тремблэ (Jean-François' Mother), Natalie Hamel-Roy (Jean-François' Mother, озвучка), Пьер-Ив Кардинал (Éric), Пьер ЛеБланк (Mr. Martineau), Francesca Barcenas (Injured Student at Copier), Ève Duranceau (Student with the Ear Injury), Мэтью Леду (Injured Student)
Описание: 6 декабря 1989 года. Монреаль. Это был обычный учебный день, и ничего не предвещало беды. Но именно в этот день молодой женоненавистник берёт в руки винтовку и отправляется в местный политех чтобы устроить бойню
Рейтинг
kinopoisk.ru: 7.208 (31)
imdb.com: 7.30 (1 159)
Качество: DVDRip
Формат: AVI

Видео: XviD; 704x304 (2.35:1); 2089 Kbps; 23,976 fps; 0,407 bpp
Аудио: AC3; 448 Kbps; CBR; 6 ch; 48.0 KHz

Complete name : D:\Новая папка\Polytechnique\Polytechnique.2009.DVDRip.avi
Format : AVI
Format/Info : Audio Video Interleave
File size : 1.37 GiB
Duration : 1h 17mn
Overall bit rate : 2 547 Kbps
Writing application : VirtualDubMod 1.5.10.3 | www.virtualdub-fr.org || (build 2550/release)
Writing library : VirtualDubMod build 2550/release

Video
ID : 0
Format : MPEG-4 Visual
Format profile : Advanced Simple@L5
Format settings, BVOP : 1
Format settings, QPel : No
Format settings, GMC : No warppoints
Format settings, Matrix : Default (MPEG)
Codec ID : XVID
Codec ID/Hint : XviD
Duration : 1h 17mn
Bit rate : 2 089 Kbps
Width : 704 pixels
Height : 304 pixels
Display aspect ratio : 2.35:1
Frame rate : 23.976 fps
Color space : YUV
Chroma subsampling : 4:2:0
Bit depth : 8 bits
Scan type : Progressive
Compression mode : Lossy
Bits/(Pixel*Frame) : 0.407
Stream size : 1.12 GiB (82%)
Writing library : XviD 1.2.1 (UTC 2008-12-04)

Audio
ID : 1
Format : AC-3
Format/Info : Audio Coding 3
Mode extension : CM (complete main)
Codec ID : 2000
Duration : 1h 17mn
Bit rate mode : Constant
Bit rate : 448 Kbps
Channel(s) : 6 channels
Channel positions : Front: L C R, Side: L R, LFE
Sampling rate : 48.0 KHz
Bit depth : 16 bits
Compression mode : Lossy
Stream size : 247 MiB (18%)
Alignment : Split accross interleaves
Interleave, duration : 42 ms (1.00 video frame)
Interleave, preload duration : 500 ms



Скачать Политех.Polytechnique.(Дени.Вильнёв.Denis.Villeneuve).[2009.драма.криминал.история.DVDRip].torrent без регистрации
Золото ЗОЛОТАЯ РАЗДАЧА! СКАЧАННОЕ НЕ ЗАСЧИТЫВАЕТСЯ! Золото
Дата: Зарегистрирован   [ Тип: внутренний ] Как тут cкачать?
MAGNET ссылка
MAGNET ссылка


Скачать .torrent

14 KB

Статус: проверено DHT
Скачан: торрент - 120 раз, раздача полностью - 2 раз
Размер: 1,37 GB
Оценка:  - (Голосов: 0)
Поблагодарили: 0
Поделиться ссылкой на эту раздачу с друзьями:
В контактеFacebookОдноклассникиTwitterLivejournalМой МирLiveinternet
 

 
Показать сообщения:    


Вы не можете начинать темы
Вы не можете отвечать на сообщения
Вы не можете редактировать свои сообщения
Вы не можете удалять свои сообщения
Вы не можете голосовать в опросах
Вы не можете прикреплять файлы к сообщениям
Вы можете скачивать файлы