Loading...
Error

Скачать Дневники вампира / The Vampire Diaries (сезон 02) (Маркос Сига) [2010, молодежная драма, ужасы, HDTVRip] [Sub] торрент без регистрации

 
Статистика раздачи
Размер:  7,53 GB   |    Скачан:  522 раза
Сидов:  1  [  0 KB/s  ]  
 
Автор Сообщение

МихаНЕзатор

[] 

Дневники Вампира / The Vampire Diaries


Год выпуска: 2010
Страна: США
Жанр: молодежная драма, ужасы
Продолжительность: 00:45:00
Перевод: отсутствует
Русские субтитры: есть
Субтитры: Субтитры от OTHfilm

Режиссёр: Маркос Сига

В ролях: , Пол Уэсли, , Стивен Р. МакКуин, Катерина Грэхэм, Кендес Аккола, Зак Рериг, Кайла Юэлл, Майкл Тревино, Сара Каннинг

Описание: Прошло всего четыре месяца после трагической аварии, в которой погибли их родители, и 17-летняя Елена Гилберт и ее 15-летний брат Джереми все еще пытаются оправиться от потери и вернуться к нормальной жизни. Елена всегда была отличной ученицей, красивой и популярной девушкой в школе, но теперь ей очень тяжело скрывать свою печаль от внешнего мира. В начале учебного года внимание Елены и ее друзей привлекает новый ученик, загадочный и красивый Стефан Сальваторе.
Стефан и Елена тут же чувствуют взаимную симпатию, но Елена даже не подозревает, что Стефан — вампир, которому уже сотни лет, и который старается мирно жить среди людей, несмотря на то, что его брат, Дэймон — воплощение вампирской жестокости и кровожадности. Теперь два брата-вампира — один добрый, другой злой — ведут борьбу за души Елены, ее друзей и других жителей городка Мистик Фоллз.

Доп. информация: Релиз от OTHfilm
Перевод: ksenechka-zip и shining_crystal (1-2, 4-12, 14-18 серии), shining_crystal (3 и13, 18-22 серии)
Редакция: shining_crystal

Качество: HDTVRip
Формат: AVI
Видео кодек: XviD
Аудио кодек: MP3
Видео: 624x352 (1.77:1), 23.976 fps, XviD MPEG-4 ~1008 kbps avg, 0.19 bit/pixel
Аудио: 48 kHz, MPEG Layer 3, 2 ch, ~128.00 kbps avg

General
Complete name
Format : AVI
Format/Info : Audio Video Interleave
File size : 350 MiB
Duration : 41mn 22s
Overall bit rate : 1 181 Kbps
Writing application : transcode-1.0.6

Video
ID : 0
Format : MPEG-4 Visual
Format profile : Advanced Simple@L5
Format settings, BVOP : Yes
Format settings, QPel : No
Format settings, GMC : No warppoints
Format settings, Matrix : Default (H.263)
Codec ID : XVID
Codec ID/Hint : XviD
Duration : 41mn 22s
Bit rate : 1 015 Kbps
Width : 624 pixels
Height : 352 pixels
Display aspect ratio : 16:9
Frame rate : 23.976 fps
Resolution : 8 bits
Colorimetry : 4:2:0
Scan type : Progressive
Bits/(Pixel*Frame) : 0.193
Stream size : 301 MiB (86%)
Writing library : XviD 1.2.1 (UTC 2008-12-04)

Audio
ID : 1
Format : MPEG Audio
Format version : Version 1
Format profile : Layer 3
Mode : Joint stereo
Format_Settings_ModeExtension : MS Stereo
Codec ID : 55
Codec ID/Hint : MP3
Duration : 41mn 22s
Bit rate mode : Variable
Bit rate : 153 Kbps
Nominal bit rate : 160 Kbps
Channel(s) : 2 channels
Sampling rate : 48.0 KHz
Stream size : 45.3 MiB (13%)
Alignment : Aligned on interleaves
Interleave, duration : 24 ms (0.58 video frame)
Writing library : LAME3.98r
Encoding settings : -m j -V 4 -q 3 -lowpass 17.5 --abr 160

Внимание! Раздача ведётся путём добавления новых серий; при каждом добавлении создаётся новый торрент. Чтобы начать докачку новой серии, пользователям необходимо сделать следующее:
(1) остановить скачивание,
(2) удалить старый торрент у себя из клиента (старые серии удалять не надо),
(3) скачать новый торрент и запустить его у себя в клиенте вместо старого, при этом указать клиенту путь в старую папку куда и должно происходить скачивание новых серий.

Ваш клиент при этом должен произвести хеширование (проверку) старой папки (если не производит сам - помогите ему сделать это), и будет докачивать только те серии которых у вас ещё нет. Старые серии при этом не удаляются, а продолжают раздаваться!
Eсли вы уже удалили старые серии, то предотвратить повторную закачку старых серий можно, отжав галочку в соответствующих местах при запуске нового торрента. По возможности, желательно не удалять старые серии как можно дольше чтобы релизёр не столько продолжал раздавать старые серии, а смог сконцентрироваться на новых. (с)

Второй Сезон

1. The Return / Возвращение
2. Brave New World / Новый Храбрый мир
3. Bad Moon Rising / Полнолуние
4. Memory Lane / Переулок памяти
5. Kill or Be Killed / Убей или убьют тебя
6. Plan B / План Б
7. Masquerade / Маскарад
8. Rose / Роуз
9. Katerina / Катерина
10. The Sacrifice / Жертвоприношение
11. By the Light of the Moon / Под светом луны
12. The Descent / Нисхождение
13. Daddy Issues / Папины проблемы
14. Crying Wolf / Ложная тревога
15. The Dinner Party /Ужин-вечеринка
16. The House Guest/ Незваная гостья
17. Know Thy Enemy /Знай своего врага
18. The Last Dance / Последний танец
19. Klaus / Клаус
20. The Last Day / Последний день
21. The Sun Also Rises / И восходит солнце
22. As I Lay Dying / Пока я лежу умирая


Второй сезон полностью!






Скачать Дневники.вампира.The.Vampire.Diaries.(сезон.02).(Маркос.Сига).[2010.молодежная.драма.ужасы.HDTVRip].[Sub].torrent без регистрации
Золото ЗОЛОТАЯ РАЗДАЧА! СКАЧАННОЕ НЕ ЗАСЧИТЫВАЕТСЯ! Золото
Дата: Зарегистрирован   [ Тип: внутренний ] Как тут cкачать?
MAGNET ссылка
MAGNET ссылка


Скачать .torrent

41 KB

Статус: проверено DHT
Скачан: торрент - 522 раз, раздача полностью - 614 раз
Размер: 7,53 GB
Оценка:  5 (Голосов: 3)
Поблагодарили: 5
Поделиться ссылкой на эту раздачу с друзьями:
В контактеFacebookОдноклассникиTwitterLivejournalМой МирLiveinternet
 

 
Показать сообщения:    


Вы не можете начинать темы
Вы не можете отвечать на сообщения
Вы не можете редактировать свои сообщения
Вы не можете удалять свои сообщения
Вы не можете голосовать в опросах
Вы не можете прикреплять файлы к сообщениям
Вы можете скачивать файлы