Loading...
Error

Скачать Эврика / Eureka (сезон 3, серии 1-18 из 18) (Майк Рол, Майкл Ланж, Майкл Робисан) [2009, фантастика, комедия, драма, детектив, WEB-DL][720p] СТС + LostFilm торрент без регистрации

 
Статистика раздачи
Размер:  28,42 GB   |    Скачан:  255 раз

Полного источника не было: 23 минуты

 
Автор Сообщение

Shara

[] 

Эврика / Eureka

Год выпуска: 2009
Страна: США
Жанр: фантастика, комедия, драма, детектив
Продолжительность: 13:07:58 (18x~43 мин.)
Перевод 1: профессиональный многоголосый закадровый, СТС (1-13 серии)
Перевод 2: профессиональный многоголосый закадровый, LostFilm
Русские субтитры: нет
Субтитры: Английские

Режиссёр: Майк Рол, Майкл Ланж, Майкл Робисан

В ролях: Колин Фергюсон, Нил Грэйстон, Салли Ричардсон, Эрика Серра, Джо Мортон, Джордан Хинсон, Крис Готье, Эд Куинн, Найолл Мэттер, Дебра Фарентино и др.

Описание: Поскольку Вторая Мировая Война закончилась уничтожением Хиросимы и Нагасаки, наука и изобретения стали приоритетными во всем мире. Америка чуть не проиграла гонку с атомными бомбами; это не должно повториться.

С помощью Альберта Эйнштейна и других доверенных советников, Президент Гарри С. Труман уполномочил начать заселение удаленной области Тихоокеанского Северо-запада, чтобы сохранить интеллектуальные ценности Америки. Там величайшие умы, вундеркинды, были бы в состоянии жить и работать в благосклонной окружающей среде. Лучшие архитекторы и планировщики были уполномочены построить такое место для этих превосходных гениев, где бы они жили и имели лучшее образование для своих детей, лучшую систему здравоохранения, все для комфортного проживания жизни. Это общество жило бы так же, как все, но с небольшим различием: этот город не обозначен ни на одной карте. О нем никто не знает, кроме Пентагона.

Так появился город Эврика. Но в этом маленьком городе все совсем не так, как в других маленьких городах. Большинство «квантовых прыжков» в науке и технике в течение 50 лет было произведено именно элитными исследователями из Эврики. К сожалению, научные исследования всегда непредсказуемы, и годы экспериментов привели к некоторым побочным явлениям.

От невостребованной любви до профессиональной ревности, от склонности до депрессии, проблемы горожан Эвреки увеличиваются с каждым днем. Но с уникальными талантами населения и безграничными ресурсами, эти провинциальные проблемы могут стать большими проблемами. Именно там, где человеческая непрочность и супернаука сталкиваются, Эврика, начинается…

Доп. информация:
Перевод 1:
Озвучено кинокомпанией Селена Интернешнл по заказу СТС.

Перевод 2:
Перевод: Relicit, озвучка: Студия "Kravec".



Качество: WEB-DL 720p
Формат: MKV
Видео кодек: H.264
Аудио кодек: AC3
Видео: MPEG-4 AVC, 1280x720, 23.976 fps, ~4000 kbps, 0.183 bit/pixel
Аудио 1: Русский (СТС), Dolby Digital, 5.1, 48 kHz, 448 kbps (1-13 серии)
Аудио 2: Русский (LostFilm), Dolby Digital, 5.1, 48 kHz, 448 kbps
Аудио 3: Английский, Dolby Digital, 5.1, 48 kHz, 384 kbps
Субтитры: Английские, SRT

1. Сбежавший робот (Bad to the Drone) [43:42]
2. Что случилось с Бобом? (What About Bob?) [43:54]
3. Искусственные друзья (Best in Faux) [43:55]
4. Я снова согласна (I Do Over) [43:54]
5. Покажите мне мумию (Show Me the Mummy) [43:49]
6. Не в той частоте (Phased and Confused) [44:05]
7. А вот и солнышки (Here Come the Suns) [42:50]
8. Вечный покой (From Fear to Eternity) [43:58]
9. С возвращением, Картер (Welcome Back Carter) [43:52]
10. Твоё лицо или моё (Your Face or Mine) [43:53]
11. Безумие в Пи-бране (Insane in the P-Brane) [43:53]
12. Нелегко быть зелёным (It's Not Easy Being Green) [43:51]
13. Если вы его построите… (If You Build It…) [43:52]
14. Подарочек из космоса (Ship Happens) [43:52]
15. Вода жизни (Shower the People) [43:53]
16. Вы не знаете Джека (You Don't Know Jack) [43:07]
17. Холодного дня! (Have an Ice Day) [43:52]
18. Что посеешь, то и пожнёшь (What Goes Around, Comes Around) [43:45]

General
Complete name : Eureka S03E01 Bad to the Drone.mkv
Format : Matroska
File size : 1.63 GiB
Duration : 43mn 42s
Overall bit rate : 5 352 Kbps
Encoded date : UTC 2010-08-02 11:42:05
Writing application : mkvmerge v3.4.0 ('Rapunzel') built on May 15 2010 09:38:20
Writing library : libebml v0.8.0 + libmatroska v0.9.0

Video
ID : 1
Format : AVC
Format/Info : Advanced Video Codec
Format profile : High@L3.1
Format settings, CABAC : No
Format settings, ReFrames : 2 frames
Format settings, GOP : M=2, N=32
Muxing mode : Container profile=Unknown@3.1
Codec ID : V_MPEG4/ISO/AVC
Duration : 43mn 42s
Bit rate : 3 965 Kbps
Width : 1 280 pixels
Height : 720 pixels
Display aspect ratio : 16:9
Frame rate : 23.976 fps
Color space : YUV
Chroma subsampling : 4:2:0
Bit depth : 8 bits
Scan type : Progressive
Bits/(Pixel*Frame) : 0.179
Stream size : 1.21 GiB (74%)
Language : English
Color primaries : BT.709-5, BT.1361, IEC 61966-2-4, SMPTE RP177
Transfer characteristics : BT.709-5, BT.1361
Matrix coefficients : BT.709-5, BT.1361, IEC 61966-2-4 709, SMPTE RP177

Audio #1
ID : 2
Format : AC-3
Format/Info : Audio Coding 3
Mode extension : CM (complete main)
Codec ID : A_AC3
Duration : 43mn 42s
Bit rate mode : Constant
Bit rate : 448 Kbps
Channel(s) : 6 channels
Channel positions : Front: L C R, Side: L R, LFE
Sampling rate : 48.0 KHz
Stream size : 140 MiB (8%)
Language : Russian

Audio #2
ID : 3
Format : AC-3
Format/Info : Audio Coding 3
Mode extension : CM (complete main)
Codec ID : A_AC3
Duration : 43mn 42s
Bit rate mode : Constant
Bit rate : 448 Kbps
Channel(s) : 6 channels
Channel positions : Front: L C R, Side: L R, LFE
Sampling rate : 48.0 KHz
Stream size : 140 MiB (8%)
Language : Russian

Audio #3
ID : 4
Format : AC-3
Format/Info : Audio Coding 3
Mode extension : CM (complete main)
Codec ID : A_AC3
Duration : 43mn 42s
Bit rate mode : Constant
Bit rate : 384 Kbps
Channel(s) : 6 channels
Channel positions : Front: L C R, Side: L R, LFE
Sampling rate : 48.0 KHz
Stream size : 120 MiB (7%)
Language : English

Text
ID : 5
Format : UTF-8
Codec ID : S_TEXT/UTF8
Codec ID/Info : UTF-8 Plain Text
Language : English



Скачать Эврика.Eureka.(сезон.3.серии.1-18.из.18).(Майк.Рол.Майкл.Ланж.Майкл.Робисан).[2009.фантастика.комедия.драма.детектив.WEB-DL][720p].СТС.+.LostFilm.torrent без регистрации
Золото ЗОЛОТАЯ РАЗДАЧА! СКАЧАННОЕ НЕ ЗАСЧИТЫВАЕТСЯ! Золото
Дата: Зарегистрирован   [ Тип: внутренний ] Как тут cкачать?
MAGNET ссылка
MAGNET ссылка


Скачать .torrent

144 KB

Статус: проверено DHT
Скачан: торрент - 255 раз, раздача полностью - 56 раз
Размер: 28,42 GB
Оценка:  - (Голосов: 0)
Поблагодарили: 3
Поделиться ссылкой на эту раздачу с друзьями:
В контактеFacebookОдноклассникиTwitterLivejournalМой МирLiveinternet
 

 
Показать сообщения:    


Вы не можете начинать темы
Вы не можете отвечать на сообщения
Вы не можете редактировать свои сообщения
Вы не можете удалять свои сообщения
Вы не можете голосовать в опросах
Вы не можете прикреплять файлы к сообщениям
Вы можете скачивать файлы