Loading...
Error

Скачать Хейвен / Haven (Сезон 1) (Adam Kane) [2010 г., мистика, WEB-DL 720p] (Кубик в Кубе) торрент без регистрации

 
Статистика раздачи
Размер:  18,6 GB   |    Скачан:  1204 раза
Сидов:  1  [  0 KB/s  ]  
 
Автор Сообщение

Shara

[] 

Хейвен / Haven

Год выпуска: 2010
Страна:
Жанр: мистика
Продолжительность: ~43 мин.
Перевод: профессиональный двухголосый закадровый (Кубик в Кубе)
Режиссёр: Adam Kane
В ролях: Эмили Роуз, Эрик Бальфур, Лукас Брайант, Ричард Донат, Джон Дансуорт
Описание: Сериал снят по новелле Стивена Кинга "Дитя Колорадо". В маленький город Хэвен приезжает агент ФБР Одри Паркер, чтобы расследовать смерть бывшего преступника. Из-за своего природного любопытства она попала в эпицентр этого необычного анклава, который, оказывается, издавна служил пристанищем для людей со сверхспособностями. Среди местных жителей города полицейский Натан Вурно, который стал напарником Одри, и загадочный и обаятельный мастер на все руки Дюк Крокер.



Качество: WEB-DL 720p
Формат: MKV
Видео кодек: H.264
Аудио кодек: AC3
Видео: AVC at 4172 Кбит/сек 1280 x 720 (1.778) at 23.976 fps, 0.189 bit/pixel
Аудио Rus
: Dolby Digital 2.0, 48 kHz, 320 kbps |Двухголосый закадровый, Кубик в Кубе|
Аудио Eng: Dolby Digital 5.1, 48 kHz, 384 kbps
Субтитры: russian, english

1. Добро пожаловать в Хэйвен(Welcome to Haven)
2. Бабочка (Butterfly)
3. Гармония (Harmony)
4. Ущерб (Consumed)
5. Оковы (Ball and Chain)
6. Шкура (Fur)
7. Набросок (Sketchy)
8. И никакого просвета (Ain't No Sunshine)
9. Таким каким ты был (As You Were)
10. Рука судьбы (The Hand You're Dealt)
11. Дело Одри Паркер(The Trial Of Audrey Parker)
12. То, что всплыло (Resurfacing)
13. Виток спирали (Spiral)

General
Complete name : D:\Shara\Video\Serials\Haven.s01.WEB-DL.720p\Haven.S01E06.Fur.mkv
Format : Matroska
File size : 1.43 GiB
Duration : 42mn 19s
Overall bit rate : 4 844 Kbps
Encoded date : UTC 2010-08-18 18:18:51
Writing application : mkvmerge v3.4.0 ('Rapunzel') сборка от May 15 2010 09:38:20
Writing library : libebml v0.8.0 + libmatroska v0.9.0

Video
ID : 1
Format : AVC
Format/Info : Advanced Video Codec
Format profile : High@L3.1
Format settings, CABAC : No
Format settings, ReFrames : 2 frames
Format settings, GOP : M=2, N=25
Muxing mode : Container profile=Unknown@3.1
Codec ID : V_MPEG4/ISO/AVC
Duration : 42mn 19s
Bit rate : 4 172 Kbps
Width : 1 280 pixels
Height : 720 pixels
Display aspect ratio : 16:9
Frame rate : 23.976 fps
Color space : YUV
Chroma subsampling : 4:2:0
Bit depth : 8 bits
Scan type : Progressive
Bits/(Pixel*Frame) : 0.189
Stream size : 1.23 GiB (86%)
Language : English
Color primaries : BT.709-5, BT.1361, IEC 61966-2-4, SMPTE RP177
Transfer characteristics : BT.709-5, BT.1361
Matrix coefficients : BT.709-5, BT.1361, IEC 61966-2-4 709, SMPTE RP177

Audio #1
ID : 2
Format : AC-3
Format/Info : Audio Coding 3
Mode extension : CM (complete main)
Codec ID : A_AC3
Duration : 42mn 19s
Bit rate mode : Constant
Bit rate : 192 Kbps
Channel(s) : 2 channels
Channel positions : Front: L R
Sampling rate : 48.0 KHz
Bit depth : 16 bits
Stream size : 58.1 MiB (4%)
Language : Russian

Audio #2
ID : 3
Format : AC-3
Format/Info : Audio Coding 3
Mode extension : CM (complete main)
Codec ID : A_AC3
Duration : 42mn 19s
Bit rate mode : Constant
Bit rate : 384 Kbps
Channel(s) : 6 channels
Channel positions : Front: L C R, Side: L R, LFE
Sampling rate : 48.0 KHz
Bit depth : 16 bits
Stream size : 116 MiB (8%)
Language : English

Text #1
ID : 4
Format : UTF-8
Codec ID : S_TEXT/UTF8
Codec ID/Info : UTF-8 Plain Text
Language : Russian

Text #2
ID : 5
Format : UTF-8
Codec ID : S_TEXT/UTF8
Codec ID/Info : UTF-8 Plain Text
Language : English



Скачать Хейвен.Haven.(Сезон.1).(Adam.Kane).[2010.г.мистика.WEB-DL.720p].(Кубик.в.Кубе).torrent без регистрации
Золото ЗОЛОТАЯ РАЗДАЧА! СКАЧАННОЕ НЕ ЗАСЧИТЫВАЕТСЯ! Золото
Дата: Зарегистрирован   [ Тип: внутренний ] Как тут cкачать?
MAGNET ссылка
MAGNET ссылка


Скачать .torrent

94 KB

Статус: проверено DHT
Скачан: торрент - 1204 раз, раздача полностью - 10 раз
Размер: 18,6 GB
Оценка:  - (Голосов: 0)
Поблагодарили: 2
Поделиться ссылкой на эту раздачу с друзьями:
В контактеFacebookОдноклассникиTwitterLivejournalМой МирLiveinternet
 

 
Показать сообщения:    


Вы не можете начинать темы
Вы не можете отвечать на сообщения
Вы не можете редактировать свои сообщения
Вы не можете удалять свои сообщения
Вы не можете голосовать в опросах
Вы не можете прикреплять файлы к сообщениям
Вы можете скачивать файлы