Loading...
Error

Скачать Убежище / Sanctuary (Сезон 3, Серии 1-17 из 20) (Мартин Вуд) [2010-2011, Фантастика, HDTVRip][720p] rus sub торрент без регистрации

 
Статистика раздачи
Размер:  18,58 GB   |    Скачан:  203 раза
Сидов:  1  [  0 KB/s  ]  
 
Автор Сообщение

Shara

[] 


Убежище / Sanctuary

Страна: США, Канада Телеканал: SyFy
Год выпуска: 2010-2011
Жанр: Фантастика
Продолжительность: ~43 минуты
Перевод: оригинал
Русские субтитры: есть от notabenoid
Режиссёр: Мартин Вуд
В ролях: Аманда Таппинг, Робин Данн, Кристофер Хейердал, Леа Кейрнс, Миранда Фригон, Лаура Меннелл, Райан Роббинс, Питер ДеЛуис.
Описание: Убийца из настоящего убивает проституток из прошлого… Кто он? Тот легендарный Джек Потрошитель или кто-то ещё? Откуда появляются чудовища и монстры и что вообще происходит? Это и предстоит узнать главным героям сериала…

Качество: HDTV
Формат: MKV
Видео кодек: H.264
Аудио кодек: AC3
Видео: 1280x720, 3 193 Kbps, 23.976 fps, 0.145 bit/pixel
Аудио: [English] 384 Kbps, 48.0 KHz, 6ch

General
Complete name : C:\Users\Maria\Downloads\Sanctuary - Season 3 - 720p\Sanctuary 03x01 - Kali.mkv
Format : Matroska
File size : 1.09 GiB
Duration : 43mn 41s
Overall bit rate : 3 584 Kbps
Writing application : x264.exe
Writing library : mkv2rls x264-tv version built on 2010 jul 11

Video
ID : 1
Format : AVC
Format/Info : Advanced Video Codec
Format profile : High@L3.1
Format settings, CABAC : Yes
Format settings, ReFrames : 3 frames
Muxing mode : Container profile=Unknown@3.1
Codec ID : V_MPEG4/ISO/AVC
Duration : 43mn 40s
Bit rate : 3 193 Kbps
Width : 1 280 pixels
Height : 720 pixels
Display aspect ratio : 16:9
Frame rate : 23.976 fps
Color space : YUV
Chroma subsampling : 4:2:0
Bit depth : 8 bits
Scan type : Progressive
Bits/(Pixel*Frame) : 0.145
Stream size : 977 MiB (87%)
Writing library : x264 core 88 r1471 1144615
Encoding settings : cabac=1 / ref=3 / deblock=1:0:0 / analyse=0x3:0x113 / me=hex / subme=6 / psy=1 / psy_rd=1.00:0.00 / mixed_ref=0 / me_range=16 / chroma_me=1 / trellis=1 / 8x8dct=1 / cqm=0 / deadzone=21,11 / fast_pskip=1 / chroma_qp_offset=-2 / threads=30 / sliced_threads=0 / nr=0 / decimate=1 / mbaff=0 / constrained_intra=0 / bframes=3 / b_pyramid=1 / b_adapt=2 / b_bias=0 / direct=1 / wpredb=1 / wpredp=0 / keyint=240 / keyint_min=24 / scenecut=40 / intra_refresh=0 / rc_lookahead=40 / rc=2pass / mbtree=1 / bitrate=3193 / ratetol=1.0 / qcomp=0.60 / qpmin=10 / qpmax=51 / qpstep=4 / cplxblur=20.0 / qblur=0.5 / ip_ratio=1.40 / aq=1:1.00

Audio
ID : 2
Format : AC-3
Format/Info : Audio Coding 3
Mode extension : CM (complete main)
Codec ID : A_AC3
Duration : 43mn 41s
Bit rate mode : Constant
Bit rate : 384 Kbps
Channel(s) : 6 channels
Channel positions : Front: L C R, Side: L R, LFE
Sampling rate : 48.0 KHz
Bit depth : 16 bits
Stream size : 120 MiB (11%)
Title : English
Language : English

Text
ID : 3
Format : UTF-8
Codec ID : S_TEXT/UTF8
Codec ID/Info : UTF-8 Plain Text
Title : English
Language : English



Скачать Убежище.Sanctuary.(Сезон.3.Серии.1-17.из.20).(Мартин.Вуд).[2010-2011.Фантастика.HDTVRip][720p].rus.sub.torrent без регистрации
Золото ЗОЛОТАЯ РАЗДАЧА! СКАЧАННОЕ НЕ ЗАСЧИТЫВАЕТСЯ! Золото
Дата: Зарегистрирован   [ Тип: внутренний ] Как тут cкачать?
MAGNET ссылка
MAGNET ссылка


Скачать .torrent

96 KB

Статус: проверено DHT
Скачан: торрент - 203 раз, раздача полностью - 7 раз
Размер: 18,58 GB
Оценка:  - (Голосов: 0)
Поблагодарили: 2
Поделиться ссылкой на эту раздачу с друзьями:
В контактеFacebookОдноклассникиTwitterLivejournalМой МирLiveinternet
 

 
Показать сообщения:    


Вы не можете начинать темы
Вы не можете отвечать на сообщения
Вы не можете редактировать свои сообщения
Вы не можете удалять свои сообщения
Вы не можете голосовать в опросах
Вы не можете прикреплять файлы к сообщениям
Вы можете скачивать файлы