Loading...
Error

Скачать Убежище / Sanctuary (Сезон 3, cерии 1-15 из 20) (Мартин Вуд) [2010, Фантастика, WEB-DLRip][720p][DD5.1] Rus (napaBo3uk), Eng торрент без регистрации

 
Статистика раздачи
Размер:  22,72 GB   |    Скачан:  180 раз
Сидов:  1  [  0 KB/s  ]  
 
Автор Сообщение

Shara

[] 

Убежище / Sanctuary (Сезон 3) Серии 1-15 из 20

Год выпуска: 2010
Страна: США, Канада
Жанр: Фантастика
Продолжительность: 15 серий по ~43 минуты
Перевод: любительский одноголосый закадровый (napaBo3uk)
Русские субтитры: нет
Субтитры: нет

Режиссёр: Мартин Вуд

В ролях: Аманда Таппинг, Робин Данн, Кристофер Хейердал, Райан Роббинс, Агам Дарши, Джонатан Янг, Линда Бойд,Чак Кэмпбелл, Кристин Шателейн

Описание: Убежище повествует о истории доктора Хелен Магнус, которая разыскивает разного рода чудовищных созданий(также известных как "абнормалы"). Некоторых из них нужно держать в заперти ради защиты людей, а некоторых - защищать от самих людей. В этом ей помогают её коллега доктор Уилл Зиммерман, бесстрашная и порой безрассудная дочь Эшли, черезчур разговорчивый компьютерный гений и специалист по безопасности Генри Фосс, а также Бигфут - молчаливый неандерталец, наделённый интеллектом.
Над релизом работали:
Озвучка: napaBo3uk
Монтаж и сведение звука: IsterForm
Дополнительная информация:
IMDB | КиноПоиск
Качество: WEB-DL
Формат: MKV
Видео кодек: h.264
Аудио кодек: AC3
Видео: h.264, 1280x720, 23,976 fps, ~3850 kbps, 0.174 bit/pixel
Аудио №1: AC3, 48.0 KHz, 6 channels, 384 Kbps
Аудио №2: AC3, 48.0 KHz, 6 channels, 384 Kbps
Сэмпл

Format : Matroska
File size : 1.43 GiB
Duration : 43mn 32s
Overall bit rate : 4 702 Kbps
Encoded date : UTC 2010-10-22 21:53:35
Writing application : mkvmerge v2.0.2 ('You're My Flame') built on Feb 22 2007 00:05:35
Writing library : libebml v0.7.7 + libmatroska v0.8.1

Video
ID : 1
Format : AVC
Format/Info : Advanced Video Codec
Format profile : Main@L3.1
Format settings, CABAC : No
Format settings, ReFrames : 2 frames
Format settings, GOP : M=2, N=27
Muxing mode : Container profile=Unknown@3.1
Codec ID : V_MPEG4/ISO/AVC
Duration : 43mn 32s
Bit rate mode : Variable
Bit rate : 3 841 Kbps
Width : 960 pixels
Height : 720 pixels
Display aspect ratio : 16:9
Original display aspect ratio : 4:3
Frame rate : 25.000 fps
Color space : YUV
Chroma subsampling : 4:2:0
Bit depth : 8 bits
Scan type : Progressive
Bits/(Pixel*Frame) : 0.222
Stream size : 1.17 GiB (82%)
Language : English
Color primaries : BT.709-5, BT.1361, IEC 61966-2-4, SMPTE RP177
Transfer characteristics : BT.709-5, BT.1361
Matrix coefficients : BT.709-5, BT.1361, IEC 61966-2-4 709, SMPTE RP177

Audio #1
ID : 2
Format : AC-3
Format/Info : Audio Coding 3
Mode extension : CM (complete main)
Codec ID : A_AC3
Duration : 43mn 32s
Bit rate mode : Constant
Bit rate : 384 Kbps
Channel(s) : 6 channels
Channel positions : Front: L C R, Side: L R, LFE
Sampling rate : 48.0 KHz
Bit depth : 16 bits
Stream size : 120 MiB (8%)
Title : napaBo3uk
Language : Russian

Audio #2
ID : 3
Format : AC-3
Format/Info : Audio Coding 3
Mode extension : CM (complete main)
Codec ID : A_AC3
Duration : 43mn 32s
Bit rate mode : Constant
Bit rate : 384 Kbps
Channel(s) : 6 channels
Channel positions : Front: L C R, Side: L R, LFE
Sampling rate : 48.0 KHz
Bit depth : 16 bits
Stream size : 120 MiB (8%)
Language : English

Format : Matroska
File size : 1.49 GiB
Duration : 45mn 17s
Overall bit rate : 4 706 Kbps
Encoded date : UTC 2010-11-02 09:10:53
Writing application : mkvmerge v2.0.2 ('You're My Flame') built on Feb 22 2007 00:05:35
Writing library : libebml v0.7.7 + libmatroska v0.8.1

Video
ID : 1
Format : AVC
Format/Info : Advanced Video Codec
Format profile : High@L3.1
Format settings, CABAC : No
Format settings, ReFrames : 2 frames
Format settings, GOP : M=2, N=26
Muxing mode : Container profile=Unknown@3.1
Codec ID : V_MPEG4/ISO/AVC
Duration : 45mn 17s
Bit rate mode : Variable
Bit rate : 3 844 Kbps
Width : 1 280 pixels
Height : 720 pixels
Display aspect ratio : 16:9
Frame rate : 23.976 fps
Color space : YUV
Chroma subsampling : 4:2:0
Bit depth : 8 bits
Scan type : Progressive
Bits/(Pixel*Frame) : 0.174
Stream size : 1.22 GiB (82%)
Language : English
Color primaries : BT.709-5, BT.1361, IEC 61966-2-4, SMPTE RP177
Transfer characteristics : BT.709-5, BT.1361
Matrix coefficients : BT.709-5, BT.1361, IEC 61966-2-4 709, SMPTE RP177

Audio #1
ID : 2
Format : AC-3
Format/Info : Audio Coding 3
Mode extension : CM (complete main)
Codec ID : A_AC3
Duration : 45mn 17s
Bit rate mode : Constant
Bit rate : 384 Kbps
Channel(s) : 6 channels
Channel positions : Front: L C R, Side: L R, LFE
Sampling rate : 48.0 KHz
Bit depth : 16 bits
Stream size : 124 MiB (8%)
Language : Russian

Audio #2
ID : 3
Format : AC-3
Format/Info : Audio Coding 3
Mode extension : CM (complete main)
Codec ID : A_AC3
Duration : 45mn 17s
Bit rate mode : Constant
Bit rate : 384 Kbps
Channel(s) : 6 channels
Channel positions : Front: L C R, Side: L R, LFE
Sampling rate : 48.0 KHz
Bit depth : 16 bits
Stream size : 124 MiB (8%)
Language : English



Скачать Убежище.Sanctuary.(Сезон.3.cерии.1-15.из.20).(Мартин.Вуд).[2010.Фантастика.WEB-DLRip][720p][DD5.1].Rus.(napaBo3uk).Eng.torrent без регистрации
Золото ЗОЛОТАЯ РАЗДАЧА! СКАЧАННОЕ НЕ ЗАСЧИТЫВАЕТСЯ! Золото
Дата: Зарегистрирован   [ Тип: внутренний ] Как тут cкачать?
MAGNET ссылка
MAGNET ссылка


Скачать .torrent

116 KB

Статус: проверено DHT
Скачан: торрент - 180 раз, раздача полностью - 2 раз
Размер: 22,72 GB
Оценка:  - (Голосов: 0)
Поблагодарили: 1
Поделиться ссылкой на эту раздачу с друзьями:
В контактеFacebookОдноклассникиTwitterLivejournalМой МирLiveinternet
 

 
Показать сообщения:    


Вы не можете начинать темы
Вы не можете отвечать на сообщения
Вы не можете редактировать свои сообщения
Вы не можете удалять свои сообщения
Вы не можете голосовать в опросах
Вы не можете прикреплять файлы к сообщениям
Вы можете скачивать файлы