Loading...
Error

Скачать Убежище / Sanctuary (Сезон 3, cерии 1-17 из 20) (Мартин Вуд) [2010, Фантастика, HDTVRip] rus sub торрент без регистрации

 
Статистика раздачи
Размер:  5,82 GB   |    Скачан:  286 раз
Сидов:  1  [  0 KB/s  ]  
 
Автор Сообщение

Shara

[] 

Убежище / Sanctuary

Год выпуска: 2010

Страна: США, Канада

Жанр: Фантастика

Продолжительность: 00:43:15

Перевод: оригинал, субтитры

Русские субтитры: есть (sanctuary.net)

Режиссёр: Мартин Вуд

В ролях: Аманда Таппинг, Робин Данн, Кристофер Хейердал, Леа Кейрнс, Миранда Фригон, Лаура Меннелл, Райан Роббинс, Питер ДеЛуис.

Описание: Убийца из настоящего убивает проституток из прошлого… Кто он? Тот легендарный Джек Потрошитель или кто-то ещё? Откуда появляются чудовища и монстры и что вообще происходит? Это и предстоит узнать главным героям сериала…

Качество: HDTVRip

Формат: AVI

Видео кодек: XviD

Аудио кодек: MP3

Видео: 624 x 352 (1.773), 624 x 352 (1.773), MPEG-4 Visual, 998 Кбит/сек

Аудио: 48 kHz, MPEG Layer 3, 2 ch, ~121.00 kbps avg

Семпл

General
Complete name : F:\Downloads\Sanctuary 3\sanctuary.s03e01.eng.avi
Format : AVI
Format/Info : Audio Video Interleave
File size : 350 MiB
Duration : 43mn 15s
Overall bit rate : 1 133 Kbps
Writing application : MEncoder dev-SVN-r26940
Writing library : MPlayer

Video
ID : 0
Format : MPEG-4 Visual
Format profile : Advanced Simple@L5
Format settings, BVOP : Yes
Format settings, QPel : No
Format settings, GMC : No warppoints
Format settings, Matrix : Default (H.263)
Codec ID : XVID
Codec ID/Hint : XviD
Duration : 43mn 15s
Bit rate : 998 Kbps
Width : 624 pixels
Height : 352 pixels
Display aspect ratio : 16:9
Frame rate : 23.976 fps
Resolution : 8 bits
Colorimetry : 4:2:0
Scan type : Progressive
Bits/(Pixel*Frame) : 0.189
Stream size : 309 MiB (88%)
Writing library : XviD 1.2.1 (UTC 2008-12-04)

Audio
ID : 1
Format : MPEG Audio
Format version : Version 1
Format profile : Layer 3
Mode : Joint stereo
Codec ID : 55
Codec ID/Hint : MP3
Duration : 43mn 15s
Bit rate mode : Variable
Bit rate : 121 Kbps
Nominal bit rate : 128 Kbps
Channel(s) : 2 channels
Sampling rate : 48.0 KHz
Stream size : 37.8 MiB (11%)
Alignment : Aligned on interleaves
Interleave, duration : 24 ms (0.58 video frame)
Interleave, preload duration : 534 ms
Writing library : LAME3.90.
Encoding settings : -m j -V 4 -q 2 -lowpass 17.6 --abr 128

Внимание! Раздача ведётся путём добавления новых серий; при каждом добавлении создётся новый торрент. Чтобы начать докачку новой серии, пользователям необходимо сделать следующее: (1) остановить скачивание, (2) удалить старый торрент у себя из клиента (старые серии удалять не надо), (3) скачать новый торрент и запустить его у себя в клиенте вместо старого, при этом указать клиенту путь в старую папку куда и должно происходить скачивание новых серий.

Ваш клиент при этом должен произвести хеширование (проверку) старой папки (если не производит сам - помогите ему сделать это), и будет докачивать только те серии которых у вас ещё нет. Старые серии при этом не удаляются, а продолжают раздаваться!

Eсли вы уже удалили старые серии, то предотвратить повторную закачку старых серий можно, отжав галочку в соответсвующих местах при запуске нового торрента.



Скачать Убежище.Sanctuary.(Сезон.3.cерии.1-17.из.20).(Мартин.Вуд).[2010.Фантастика.HDTVRip].rus.sub.torrent без регистрации
Золото ЗОЛОТАЯ РАЗДАЧА! СКАЧАННОЕ НЕ ЗАСЧИТЫВАЕТСЯ! Золото
Дата: Зарегистрирован   [ Тип: внутренний ] Как тут cкачать?
MAGNET ссылка
MAGNET ссылка


Скачать .torrent

32 KB

Статус: проверено DHT
Скачан: торрент - 286 раз, раздача полностью - 42 раз
Размер: 5,82 GB
Оценка:  - (Голосов: 0)
Поблагодарили: 3
Поделиться ссылкой на эту раздачу с друзьями:
В контактеFacebookОдноклассникиTwitterLivejournalМой МирLiveinternet
 

 
Показать сообщения:    


Вы не можете начинать темы
Вы не можете отвечать на сообщения
Вы не можете редактировать свои сообщения
Вы не можете удалять свои сообщения
Вы не можете голосовать в опросах
Вы не можете прикреплять файлы к сообщениям
Вы можете скачивать файлы