Loading...
Error

Скачать Яркая звезда / Bright Star (Джейн Кэмпион / Jane Campion) [2009, драма, мелодрама, биография, HDRip] [Лицензия] торрент без регистрации

 
Статистика раздачи
Размер:  746 MB   |    Скачан:  122 раза
Сидов:  1  [  0 KB/s  ]  
 
Автор Сообщение

МихаНЕзатор

[] 

Информация о фильме
Название: Яркая звезда
Оригинальное название: Bright Star
Год выхода: 2009
Жанр: драма, мелодрама, биография
Режиссер: Джейн Кэмпион / Jane Campion
В ролях: Бен Уишоу /Ben Whishaw/, Эбби Корниш /Abbie Cornish/, Керри Фокс /Kerry Fox/, Пол Шнайдер /Paul Schneider/, Иди Мартин /Edie Martin/, Томас Броди Сэнгстер /Thomas Brodie-Sangster/, Герард Монако /Gerard Monaco/

О фильме:
Фильм рассказывает историю английского поэта Джона Китса, скончавшегося в 25-летнем возрасте от чахотки. Последние три года своей жизни Джон понимал, что постепенно угасает, и именно в это время началась его романтическая связь с девушкой Фэнни Браун.


Страна: Франция, Великобритания, Австралия
Продолжительность: 01:58:59
Перевод: Профессиональный (многоголосый, закадровый) | Лицензия

Файл
Кодек: XviD / MP3
Качество: HDRip
Видео: XviD, 624x336 (1.857), 24.000 fps, 739 Kbps (0.147 bit/pixel)
Звук: MP3, 48.0 KHz, 2 ch, 128 Kbps, CBR
General
Complete name : E:Bright.Star_[Rutor.org].avi
Format : AVI
Format/Info : Audio Video Interleave
File size : 746 MiB
Duration : 1h 58mn
Overall bit rate : 876 Kbps
Writing application : VirtualDubMod 1.5.10.2 (build 2540/release)
Writing library : VirtualDubMod build 2540/release

Video
ID : 0
Format : MPEG-4 Visual
Format profile : Advanced Simple@L5
Format settings, BVOP : 1
Format settings, QPel : No
Format settings, GMC : No warppoints
Format settings, Matrix : Custom
Codec ID : XVID
Codec ID/Hint : XviD
Duration : 1h 58mn
Bit rate : 739 Kbps
Width : 624 pixels
Height : 336 pixels
Display aspect ratio : 1.857
Frame rate : 24.000 fps
Color space : YUV
Chroma subsampling : 4:2:0
Bit depth : 8 bits
Scan type : Progressive
Compression mode : Lossy
Bits/(Pixel*Frame) : 0.147
Stream size : 629 MiB (84%)
Writing library : XviD 1.2.1 (UTC 2008-12-04)

Audio
ID : 1
Format : MPEG Audio
Format version : Version 1
Format profile : Layer 3
Codec ID : 55
Codec ID/Hint : MP3
Duration : 1h 58mn
Bit rate mode : Constant
Bit rate : 128 Kbps
Channel(s) : 2 channels
Sampling rate : 48.0 KHz
Compression mode : Lossy
Stream size : 109 MiB (15%)
Alignment : Aligned on interleaves
Interleave, duration : 42 ms (1.00 video frame)
Interleave, preload duration : 504 ms
Writing library : LAME3.97
Encoding settings : -m s -V 4 -q 2 -lowpass 17 -b 128



Скачать Яркая.звезда.Bright.Star.(Джейн.Кэмпион.Jane.Campion).[2009.драма.мелодрама.биография.HDRip].[Лицензия].torrent без регистрации
Золото ЗОЛОТАЯ РАЗДАЧА! СКАЧАННОЕ НЕ ЗАСЧИТЫВАЕТСЯ! Золото
Дата: Зарегистрирован   [ Тип: внутренний ] Как тут cкачать?
MAGNET ссылка
MAGNET ссылка


Скачать .torrent

15 KB

Статус: проверено DHT
Скачан: торрент - 122 раз, раздача полностью - 6 раз
Размер: 746 MB
Оценка:  5 (Голосов: 1)
Поблагодарили: 1
Поделиться ссылкой на эту раздачу с друзьями:
В контактеFacebookОдноклассникиTwitterLivejournalМой МирLiveinternet
 

 
Показать сообщения:    


Вы не можете начинать темы
Вы не можете отвечать на сообщения
Вы не можете редактировать свои сообщения
Вы не можете удалять свои сообщения
Вы не можете голосовать в опросах
Вы не можете прикреплять файлы к сообщениям
Вы можете скачивать файлы